  0
SECTION
  2
HEADER
  9
$ACADVER
  1
AC1015
  9
$ACADMAINTVER
 70
    20
  9
$DWGCODEPAGE
  3
ANSI_1252
  9
$INSBASE
 10
0.0
 20
0.0
 30
0.0
  9
$EXTMIN
 10
4960.17374372747
 20
2381.409330073159
 30
0.0
  9
$EXTMAX
 10
4964.160859878633
 20
2382.210551927714
 30
0.0
  9
$LIMMIN
 10
0.0
 20
0.0
  9
$LIMMAX
 10
420.0
 20
297.0
  9
$ORTHOMODE
 70
     1
  9
$REGENMODE
 70
     1
  9
$FILLMODE
 70
     1
  9
$QTEXTMODE
 70
     0
  9
$MIRRTEXT
 70
     1
  9
$LTSCALE
 40
1.0
  9
$ATTMODE
 70
     1
  9
$TEXTSIZE
 40
2.5
  9
$TRACEWID
 40
1.0
  9
$TEXTSTYLE
  7
SANINDUSA
  9
$CLAYER
  8
0
  9
$CELTYPE
  6
ByLayer
  9
$CECOLOR
 62
   256
  9
$CELTSCALE
 40
1.0
  9
$DISPSILH
 70
     0
  9
$DIMSCALE
 40
1.0
  9
$DIMASZ
 40
2.0
  9
$DIMEXO
 40
1.0
  9
$DIMDLI
 40
1.0
  9
$DIMRND
 40
0.0
  9
$DIMDLE
 40
0.0
  9
$DIMEXE
 40
1.0
  9
$DIMTP
 40
0.0
  9
$DIMTM
 40
0.0
  9
$DIMTXT
 40
2.0
  9
$DIMCEN
 40
0.0
  9
$DIMTSZ
 40
0.0
  9
$DIMTOL
 70
     0
  9
$DIMLIM
 70
     0
  9
$DIMTIH
 70
     0
  9
$DIMTOH
 70
     0
  9
$DIMSE1
 70
     0
  9
$DIMSE2
 70
     0
  9
$DIMTAD
 70
     1
  9
$DIMZIN
 70
     8
  9
$DIMBLK
  1

  9
$DIMASO
 70
     1
  9
$DIMSHO
 70
     1
  9
$DIMPOST
  1

  9
$DIMAPOST
  1

  9
$DIMALT
 70
     0
  9
$DIMALTD
 70
     3
  9
$DIMALTF
 40
0.03937007874016
  9
$DIMLFAC
 40
1.0
  9
$DIMTOFL
 70
     1
  9
$DIMTVP
 40
0.0
  9
$DIMTIX
 70
     0
  9
$DIMSOXD
 70
     0
  9
$DIMSAH
 70
     0
  9
$DIMBLK1
  1

  9
$DIMBLK2
  1

  9
$DIMSTYLE
  2
SANINDUSA
  9
$DIMCLRD
 70
   256
  9
$DIMCLRE
 70
   256
  9
$DIMCLRT
 70
   256
  9
$DIMTFAC
 40
1.0
  9
$DIMGAP
 40
1.0
  9
$DIMJUST
 70
     0
  9
$DIMSD1
 70
     0
  9
$DIMSD2
 70
     0
  9
$DIMTOLJ
 70
     0
  9
$DIMTZIN
 70
     8
  9
$DIMALTZ
 70
     0
  9
$DIMALTTZ
 70
     0
  9
$DIMUPT
 70
     0
  9
$DIMDEC
 70
     1
  9
$DIMTDEC
 70
     1
  9
$DIMALTU
 70
     2
  9
$DIMALTTD
 70
     3
  9
$DIMTXSTY
  7
SANINDUSA
  9
$DIMAUNIT
 70
     0
  9
$DIMADEC
 70
     1
  9
$DIMALTRND
 40
0.0
  9
$DIMAZIN
 70
     0
  9
$DIMDSEP
 70
    44
  9
$DIMATFIT
 70
     3
  9
$DIMFRAC
 70
     0
  9
$DIMLDRBLK
  1

  9
$DIMLUNIT
 70
     2
  9
$DIMLWD
 70
    -1
  9
$DIMLWE
 70
    -1
  9
$DIMTMOVE
 70
     0
  9
$LUNITS
 70
     2
  9
$LUPREC
 70
     4
  9
$SKETCHINC
 40
1.0
  9
$FILLETRAD
 40
0.0
  9
$AUNITS
 70
     0
  9
$AUPREC
 70
     0
  9
$MENU
  1
.
  9
$ELEVATION
 40
0.0
  9
$PELEVATION
 40
0.0
  9
$THICKNESS
 40
0.0
  9
$LIMCHECK
 70
     0
  9
$CHAMFERA
 40
10.0
  9
$CHAMFERB
 40
10.0
  9
$CHAMFERC
 40
20.0
  9
$CHAMFERD
 40
0.0
  9
$SKPOLY
 70
     0
  9
$TDCREATE
 40
2455782.538534433
  9
$TDUCREATE
 40
2455782.496867766
  9
$TDUPDATE
 40
2456203.527707419
  9
$TDUUPDATE
 40
2456203.486040752
  9
$TDINDWG
 40
0.0490671875
  9
$TDUSRTIMER
 40
0.0490671875
  9
$USRTIMER
 70
     1
  9
$ANGBASE
 50
0.0
  9
$ANGDIR
 70
     0
  9
$PDMODE
 70
     0
  9
$PDSIZE
 40
0.0
  9
$PLINEWID
 40
0.0
  9
$SPLFRAME
 70
     0
  9
$SPLINETYPE
 70
     6
  9
$SPLINESEGS
 70
     8
  9
$HANDSEED
  5
194C
  9
$SURFTAB1
 70
     6
  9
$SURFTAB2
 70
     6
  9
$SURFTYPE
 70
     6
  9
$SURFU
 70
     6
  9
$SURFV
 70
     6
  9
$UCSBASE
  2

  9
$UCSNAME
  2

  9
$UCSORG
 10
0.0
 20
0.0
 30
0.0
  9
$UCSXDIR
 10
1.0
 20
0.0
 30
0.0
  9
$UCSYDIR
 10
0.0
 20
1.0
 30
0.0
  9
$UCSORTHOREF
  2

  9
$UCSORTHOVIEW
 70
     0
  9
$UCSORGTOP
 10
0.0
 20
0.0
 30
0.0
  9
$UCSORGBOTTOM
 10
0.0
 20
0.0
 30
0.0
  9
$UCSORGLEFT
 10
0.0
 20
0.0
 30
0.0
  9
$UCSORGRIGHT
 10
0.0
 20
0.0
 30
0.0
  9
$UCSORGFRONT
 10
0.0
 20
0.0
 30
0.0
  9
$UCSORGBACK
 10
0.0
 20
0.0
 30
0.0
  9
$PUCSBASE
  2

  9
$PUCSNAME
  2

  9
$PUCSORG
 10
0.0
 20
0.0
 30
0.0
  9
$PUCSXDIR
 10
1.0
 20
0.0
 30
0.0
  9
$PUCSYDIR
 10
0.0
 20
1.0
 30
0.0
  9
$PUCSORTHOREF
  2

  9
$PUCSORTHOVIEW
 70
     0
  9
$PUCSORGTOP
 10
0.0
 20
0.0
 30
0.0
  9
$PUCSORGBOTTOM
 10
0.0
 20
0.0
 30
0.0
  9
$PUCSORGLEFT
 10
0.0
 20
0.0
 30
0.0
  9
$PUCSORGRIGHT
 10
0.0
 20
0.0
 30
0.0
  9
$PUCSORGFRONT
 10
0.0
 20
0.0
 30
0.0
  9
$PUCSORGBACK
 10
0.0
 20
0.0
 30
0.0
  9
$USERI1
 70
     0
  9
$USERI2
 70
     0
  9
$USERI3
 70
     0
  9
$USERI4
 70
     0
  9
$USERI5
 70
     0
  9
$USERR1
 40
0.0
  9
$USERR2
 40
0.0
  9
$USERR3
 40
0.0
  9
$USERR4
 40
0.0
  9
$USERR5
 40
0.0
  9
$WORLDVIEW
 70
     1
  9
$SHADEDGE
 70
     3
  9
$SHADEDIF
 70
    70
  9
$TILEMODE
 70
     1
  9
$MAXACTVP
 70
    64
  9
$PINSBASE
 10
0.0
 20
0.0
 30
0.0
  9
$PLIMCHECK
 70
     0
  9
$PEXTMIN
 10
1.000000000000000E+20
 20
1.000000000000000E+20
 30
1.000000000000000E+20
  9
$PEXTMAX
 10
-1.000000000000000E+20
 20
-1.000000000000000E+20
 30
-1.000000000000000E+20
  9
$PLIMMIN
 10
0.0
 20
0.0
  9
$PLIMMAX
 10
420.0
 20
297.0
  9
$UNITMODE
 70
     0
  9
$VISRETAIN
 70
     1
  9
$PLINEGEN
 70
     0
  9
$PSLTSCALE
 70
     1
  9
$TREEDEPTH
 70
  3020
  9
$CMLSTYLE
  2
Standard
  9
$CMLJUST
 70
     0
  9
$CMLSCALE
 40
20.0
  9
$PROXYGRAPHICS
 70
     1
  9
$MEASUREMENT
 70
     1
  9
$CELWEIGHT
370
    -1
  9
$ENDCAPS
280
     0
  9
$JOINSTYLE
280
     0
  9
$LWDISPLAY
290
     0
  9
$INSUNITS
 70
     4
  9
$HYPERLINKBASE
  1

  9
$STYLESHEET
  1
sanindusa.ctb
  9
$XEDIT
290
     1
  9
$CEPSNTYPE
380
     0
  9
$PSTYLEMODE
290
     1
  9
$FINGERPRINTGUID
  2
{B656A392-A33F-44F8-B592-A468196E9D6A}
  9
$VERSIONGUID
  2
{B6E84C32-B87F-4537-A2C6-335EF4FF1115}
  9
$EXTNAMES
290
     1
  9
$PSVPSCALE
 40
0.0
  9
$OLESTARTUP
290
     0
  0
ENDSEC
  0
SECTION
  2
CLASSES
  0
CLASS
  1
ACDBDICTIONARYWDFLT
  2
AcDbDictionaryWithDefault
  3
ObjectDBX Classes
 90
        0
280
     0
281
     0
  0
CLASS
  1
ACDBPLACEHOLDER
  2
AcDbPlaceHolder
  3
ObjectDBX Classes
 90
        0
280
     0
281
     0
  0
CLASS
  1
LAYOUT
  2
AcDbLayout
  3
ObjectDBX Classes
 90
        0
280
     0
281
     0
  0
CLASS
  1
DICTIONARYVAR
  2
AcDbDictionaryVar
  3
ObjectDBX Classes
 90
        0
280
     0
281
     0
  0
CLASS
  1
DIMASSOC
  2
AcDbDimAssoc
  3
"AcDbDimAssoc|Product Desc:     AcDim ARX App For Dimension|Company:          Autodesk, Inc.|WEB Address:      www.autodesk.com"
 90
        0
280
     0
281
     0
  0
CLASS
  1
TABLESTYLE
  2
AcDbTableStyle
  3
ObjectDBX Classes
 90
     4095
280
     0
281
     0
  0
CLASS
  1
MATERIAL
  2
AcDbMaterial
  3
ObjectDBX Classes
 90
     1153
280
     0
281
     0
  0
CLASS
  1
VISUALSTYLE
  2
AcDbVisualStyle
  3
ObjectDBX Classes
 90
     4095
280
     0
281
     0
  0
CLASS
  1
SCALE
  2
AcDbScale
  3
ObjectDBX Classes
 90
     1153
280
     0
281
     0
  0
CLASS
  1
MLEADERSTYLE
  2
AcDbMLeaderStyle
  3
ACDB_MLEADERSTYLE_CLASS
 90
     4095
280
     0
281
     0
  0
CLASS
  1
SORTENTSTABLE
  2
AcDbSortentsTable
  3
ObjectDBX Classes
 90
        0
280
     0
281
     0
  0
CLASS
  1
AEC_REFEDIT_STATUS_TRACKER
  2
AecDbRefEditStatusTracker
  3
AecArchBase60|Product Desc: Autodesk Architectural Desktop 2007 |Company: Autodesk,Inc. |WEB Address: www.autodesk.com
 90
    32897
280
     0
281
     0
  0
CLASS
  1
NPOCOLLECTION
  2
AcDbImpNonPersistentObjectsCollection
  3
ObjectDBX Classes
 90
    33921
280
     0
281
     0
  0
CLASS
  1
CELLSTYLEMAP
  2
AcDbCellStyleMap
  3
ObjectDBX Classes
 90
     1152
280
     0
281
     0
  0
CLASS
  1
SOLID_BACKGROUND
  2
AcDbSolidBackground
  3
SCENEOE
 90
    36863
280
     0
281
     0
  0
ENDSEC
  0
SECTION
  2
TABLES
  0
TABLE
  2
VPORT
  5
8
102
{ACAD_XDICTIONARY
360
18CC
102
}
330
0
100
AcDbSymbolTable
 70
     1
  0
VPORT
  5
1068
330
8
100
AcDbSymbolTableRecord
100
AcDbViewportTableRecord
  2
*Active
 70
     0
 10
0.0
 20
0.0
 11
1.0
 21
1.0
 12
4962.167301803054
 22
2381.809941000437
 13
0.0
 23
0.0
 14
10.0
 24
10.0
 15
10.0
 25
10.0
 16
0.0
 26
0.0
 36
1.0
 17
0.0
 27
0.0
 37
0.0
 40
2.432298996473656
 41
1.645464025026068
 42
50.0
 43
0.0
 44
0.0
 50
0.0
 51
0.0
 71
     0
 72
   100
 73
     1
 74
     2
 75
     0
 76
     0
 77
     0
 78
     0
281
     0
 65
     1
110
0.0
120
0.0
130
0.0
111
1.0
121
0.0
131
0.0
112
0.0
122
1.0
132
0.0
 79
     0
146
0.0
  0
ENDTAB
  0
TABLE
  2
LTYPE
  5
5
330
0
100
AcDbSymbolTable
 70
     5
  0
LTYPE
  5
14
330
5
100
AcDbSymbolTableRecord
100
AcDbLinetypeTableRecord
  2
ByBlock
 70
     0
  3

 72
    65
 73
     0
 40
0.0
  0
LTYPE
  5
15
330
5
100
AcDbSymbolTableRecord
100
AcDbLinetypeTableRecord
  2
ByLayer
 70
     0
  3

 72
    65
 73
     0
 40
0.0
  0
LTYPE
  5
16
330
5
100
AcDbSymbolTableRecord
100
AcDbLinetypeTableRecord
  2
Continuous
 70
     0
  3
Solid line
 72
    65
 73
     0
 40
0.0
  0
LTYPE
  5
2D
330
5
100
AcDbSymbolTableRecord
100
AcDbLinetypeTableRecord
  2
DASHDOT
 70
     0
  3
Dash dot __ . __ . __ . __ . __ . __ . __ . __
 72
    65
 73
     4
 40
25.4
 49
12.7
 74
     0
 49
-6.349999999999999
 74
     0
 49
0.0
 74
     0
 49
-6.349999999999999
 74
     0
  0
LTYPE
  5
2E
330
5
100
AcDbSymbolTableRecord
100
AcDbLinetypeTableRecord
  2
HIDDEN
 70
     0
  3
Hidden __ __ __ __ __ __ __ __ __ __ __ __ __ _
 72
    65
 73
     2
 40
9.524999999999998
 49
6.349999999999999
 74
     0
 49
-3.174999999999999
 74
     0
  0
LTYPE
  5
C75
330
5
100
AcDbSymbolTableRecord
100
AcDbLinetypeTableRecord
  2
AM_ISO02W050
 70
     0
  3
__ __ __ __ __ __ __ __ __ __ __ __ __ __ __
 72
    65
 73
     2
 40
7.5
 49
6.0
 74
     0
 49
-1.5
 74
     0
  0
LTYPE
  5
C76
330
5
100
AcDbSymbolTableRecord
100
AcDbLinetypeTableRecord
  2
AM_ISO08W050
 70
     0
  3
____ . ____ . ____ . ____ . ____ . ____ . ____
 72
    65
 73
     4
 40
18.0
 49
12.0
 74
     0
 49
-1.5
 74
     0
 49
3.0
 74
     0
 49
-1.5
 74
     0
  0
ENDTAB
  0
TABLE
  2
LAYER
  5
2
102
{ACAD_XDICTIONARY
360
1051
102
}
330
0
100
AcDbSymbolTable
 70
    17
  0
LAYER
  5
10
102
{ACAD_XDICTIONARY
360
1862
102
}
330
2
100
AcDbSymbolTableRecord
100
AcDbLayerTableRecord
  2
0
 70
     0
 62
     7
  6
Continuous
370
    -3
390
F
  0
LAYER
  5
2F
102
{ACAD_XDICTIONARY
360
1864
102
}
330
2
100
AcDbSymbolTableRecord
100
AcDbLayerTableRecord
  2
1
 70
     0
 62
     1
  6
Continuous
370
    -3
390
F
  0
LAYER
  5
30
102
{ACAD_XDICTIONARY
360
1866
102
}
330
2
100
AcDbSymbolTableRecord
100
AcDbLayerTableRecord
  2
2
 70
     0
 62
     2
  6
Continuous
370
    -3
390
F
  0
LAYER
  5
31
102
{ACAD_XDICTIONARY
360
1868
102
}
330
2
100
AcDbSymbolTableRecord
100
AcDbLayerTableRecord
  2
3
 70
     0
 62
     3
  6
Continuous
370
    -3
390
F
  0
LAYER
  5
32
102
{ACAD_XDICTIONARY
360
186A
102
}
330
2
100
AcDbSymbolTableRecord
100
AcDbLayerTableRecord
  2
4
 70
     0
 62
     4
  6
Continuous
370
    -3
390
F
  0
LAYER
  5
33
102
{ACAD_XDICTIONARY
360
186C
102
}
330
2
100
AcDbSymbolTableRecord
100
AcDbLayerTableRecord
  2
5
 70
     0
 62
     5
  6
Continuous
370
    -3
390
F
  0
LAYER
  5
34
102
{ACAD_XDICTIONARY
360
186E
102
}
330
2
100
AcDbSymbolTableRecord
100
AcDbLayerTableRecord
  2
6
 70
     0
 62
     6
  6
Continuous
370
    -3
390
F
  0
LAYER
  5
35
102
{ACAD_XDICTIONARY
360
1870
102
}
330
2
100
AcDbSymbolTableRecord
100
AcDbLayerTableRecord
  2
7
 70
     0
 62
     7
  6
Continuous
370
    -3
390
F
  0
LAYER
  5
36
102
{ACAD_XDICTIONARY
360
1872
102
}
330
2
100
AcDbSymbolTableRecord
100
AcDbLayerTableRecord
  2
cen
 70
     0
 62
     7
  6
DASHDOT
370
    -3
390
F
  0
LAYER
  5
37
102
{ACAD_XDICTIONARY
360
1874
102
}
330
2
100
AcDbSymbolTableRecord
100
AcDbLayerTableRecord
  2
hid
 70
     0
 62
     7
  6
HIDDEN
370
    -3
390
F
  0
LAYER
  5
5D6
102
{ACAD_XDICTIONARY
360
1876
102
}
330
2
100
AcDbSymbolTableRecord
100
AcDbLayerTableRecord
  2
hatch
 70
     0
 62
     9
  6
Continuous
370
    -3
390
F
  0
LAYER
  5
8AF
102
{ACAD_XDICTIONARY
360
1878
102
}
330
2
100
AcDbSymbolTableRecord
100
AcDbLayerTableRecord
  2
9
 70
     0
 62
     9
  6
Continuous
370
    -3
390
F
  0
LAYER
  5
8F8
102
{ACAD_XDICTIONARY
360
187A
102
}
330
2
100
AcDbSymbolTableRecord
100
AcDbLayerTableRecord
  2
leg fin
 70
     0
 62
     9
  6
Continuous
370
    -3
390
F
  0
LAYER
  5
91D
102
{ACAD_XDICTIONARY
360
187C
102
}
330
2
100
AcDbSymbolTableRecord
100
AcDbLayerTableRecord
  2
cotas
 70
     0
 62
     1
  6
Continuous
370
    -3
390
F
  0
LAYER
  5
92F
330
2
100
AcDbSymbolTableRecord
100
AcDbLayerTableRecord
  2
Defpoints
 70
     0
 62
     7
  6
Continuous
290
     0
370
    -3
390
F
  0
LAYER
  5
C7B
102
{ACAD_XDICTIONARY
360
187E
102
}
330
2
100
AcDbSymbolTableRecord
100
AcDbLayerTableRecord
  2
SANINDUSA
 70
     0
 62
     3
  6
Continuous
370
    -3
390
F
  0
LAYER
  5
1060
102
{ACAD_XDICTIONARY
360
1880
102
}
330
2
100
AcDbSymbolTableRecord
100
AcDbLayerTableRecord
  2
hid1
 70
     0
 62
     9
  6
HIDDEN
370
    -3
390
F
1001
AcAecLayerStandard
1000

1000

  0
ENDTAB
  0
TABLE
  2
STYLE
  5
3
330
0
100
AcDbSymbolTable
 70
     4
  0
STYLE
  5
11
330
3
100
AcDbSymbolTableRecord
100
AcDbTextStyleTableRecord
  2
Standard
 70
     0
 40
0.0
 41
1.0
 50
0.0
 71
     0
 42
2.5
  3
Avgardn.ttf
  4

1001
ACAD
1000
AvantGarde Bk BT
1071
       34
  0
STYLE
  5
2C
330
3
100
AcDbSymbolTableRecord
100
AcDbTextStyleTableRecord
  2

 70
     1
 40
0.0
 41
1.0
 50
0.0
 71
     0
 42
2.5
  3
ltypeshp.shx
  4

  0
STYLE
  5
91F
330
3
100
AcDbSymbolTableRecord
100
AcDbTextStyleTableRecord
  2
SANINDUSA
 70
     0
 40
0.0
 41
1.0
 50
0.0
 71
     0
 42
2.5
  3
verdana.TTF
  4

1001
ACAD
1000
Verdana
1071
       34
  0
STYLE
  5
C7C
330
3
100
AcDbSymbolTableRecord
100
AcDbTextStyleTableRecord
  2
futura
 70
     0
 40
0.0
 41
1.0
 50
0.0
 71
     0
 42
2.5
  3
ZURCHN.TTF
  4

1001
ACAD
1000
Zurich BT
1071
       34
  0
ENDTAB
  0
TABLE
  2
VIEW
  5
6
330
0
100
AcDbSymbolTable
 70
     0
  0
ENDTAB
  0
TABLE
  2
UCS
  5
7
330
0
100
AcDbSymbolTable
 70
     0
  0
ENDTAB
  0
TABLE
  2
APPID
  5
9
330
0
100
AcDbSymbolTable
 70
    13
  0
APPID
  5
12
330
9
100
AcDbSymbolTableRecord
100
AcDbRegAppTableRecord
  2
ACAD
 70
     0
  0
APPID
  5
3A
330
9
100
AcDbSymbolTableRecord
100
AcDbRegAppTableRecord
  2
DCO15
 70
     0
  0
APPID
  5
EEE
330
9
100
AcDbSymbolTableRecord
100
AcDbRegAppTableRecord
  2
ACAD_DSTYLE_DIMTEXT_FILL
 70
     0
  0
APPID
  5
EEF
330
9
100
AcDbSymbolTableRecord
100
AcDbRegAppTableRecord
  2
ACAD_DSTYLE_DIMEXT_LENGTH
 70
     0
  0
APPID
  5
EF0
330
9
100
AcDbSymbolTableRecord
100
AcDbRegAppTableRecord
  2
ACAD_DSTYLE_DIMEXT_ENABLED
 70
     0
  0
APPID
  5
EF1
330
9
100
AcDbSymbolTableRecord
100
AcDbRegAppTableRecord
  2
ACAD_DSTYLE_DIM_LINETYPE
 70
     0
  0
APPID
  5
EF2
330
9
100
AcDbSymbolTableRecord
100
AcDbRegAppTableRecord
  2
ACAD_DSTYLE_DIM_EXT1_LINETYPE
 70
     0
  0
APPID
  5
EF3
330
9
100
AcDbSymbolTableRecord
100
AcDbRegAppTableRecord
  2
ACAD_DSTYLE_DIM_EXT2_LINETYPE
 70
     0
  0
APPID
  5
FAF
330
9
100
AcDbSymbolTableRecord
100
AcDbRegAppTableRecord
  2
ACAD_DSTYLE_DIMJOGGED_JOGANGLE_SYMBOL
 70
     0
  0
APPID
  5
1013
330
9
100
AcDbSymbolTableRecord
100
AcDbRegAppTableRecord
  2
ACAD_DSTYLE_DIMARC_LENGTH_SYMBOL
 70
     0
  0
APPID
  5
1061
330
9
100
AcDbSymbolTableRecord
100
AcDbRegAppTableRecord
  2
AcAecLayerStandard
 70
     0
  0
APPID
  5
113C
330
9
100
AcDbSymbolTableRecord
100
AcDbRegAppTableRecord
  2
ACAD_PSEXT
 70
     0
  0
APPID
  5
18FE
330
9
100
AcDbSymbolTableRecord
100
AcDbRegAppTableRecord
  2
ACAD_MLEADERVER
 70
     0
  0
ENDTAB
  0
TABLE
  2
DIMSTYLE
  5
A
330
0
100
AcDbSymbolTable
 70
     3
100
AcDbDimStyleTable
 71
     1
340
921
  0
DIMSTYLE
105
45
330
A
100
AcDbSymbolTableRecord
100
AcDbDimStyleTableRecord
  2
STANDARD
 70
     0
289
     0
340
11
  0
DIMSTYLE
105
921
330
A
100
AcDbSymbolTableRecord
100
AcDbDimStyleTableRecord
  2
SANINDUSA
 70
     0
 41
2.0
 42
1.0
 43
1.0
 44
1.0
 73
     0
 74
     0
 77
     1
 78
     8
140
2.0
141
0.0
143
0.03937007874016
147
1.0
171
     3
172
     1
176
   256
177
   256
178
   256
179
     1
271
     1
272
     1
274
     3
278
    44
283
     0
284
     8
340
91F
371
    -1
372
    -1
1001
ACAD_DSTYLE_DIMJOGGED_JOGANGLE_SYMBOL
1070
   384
1040
1.570796326794896
  0
DIMSTYLE
105
C7D
330
A
100
AcDbSymbolTableRecord
100
AcDbDimStyleTableRecord
  2
AM_ISO
 70
     0
  4
"
 41
2.5
 42
1.0
 43
10.0
 44
1.0
 47
0.1
 48
0.1
 73
     0
 74
     0
 77
     1
 78
     8
 79
     2
140
3.5
141
0.0
143
0.0393701
146
0.71
147
1.5
172
     1
176
   256
177
   256
178
     2
271
     2
272
     3
274
     4
283
     0
284
     8
340
11
371
    -1
372
    -1
  0
ENDTAB
  0
TABLE
  2
BLOCK_RECORD
  5
1
330
0
100
AcDbSymbolTable
 70
    50
  0
BLOCK_RECORD
  5
1F
330
1
100
AcDbSymbolTableRecord
100
AcDbBlockTableRecord
  2
*Model_Space
340
22
  0
BLOCK_RECORD
  5
1B
330
1
100
AcDbSymbolTableRecord
100
AcDbBlockTableRecord
  2
*Paper_Space
340
1E
  0
BLOCK_RECORD
  5
23
330
1
100
AcDbSymbolTableRecord
100
AcDbBlockTableRecord
  2
*Paper_Space0
340
26
  0
BLOCK_RECORD
  5
919
330
1
100
AcDbSymbolTableRecord
100
AcDbBlockTableRecord
  2
_DotSmall
340
0
  0
BLOCK_RECORD
  5
922
330
1
100
AcDbSymbolTableRecord
100
AcDbBlockTableRecord
  2
base para cotas
340
0
310
2800000020000000200000000100080000000000000400000000000000000000000000000000000000000000000080000080000000808000800000008000800080800000C0C0C000C0DCC000F0CAA6000020400000206000002080000020A0000020C0000020E00000400000004020000040400000406000004080000040A0
310
000040C0000040E00000600000006020000060400000606000006080000060A0000060C0000060E00000800000008020000080400000806000008080000080A0000080C0000080E00000A0000000A0200000A0400000A0600000A0800000A0A00000A0C00000A0E00000C0000000C0200000C0400000C0600000C0800000C0
310
A00000C0C00000C0E00000E0000000E0200000E0400000E0600000E0800000E0A00000E0C00000E0E00040000000400020004000400040006000400080004000A0004000C0004000E00040200000402020004020400040206000402080004020A0004020C0004020E000404000004040200040404000404060004040800040
310
40A0004040C0004040E00040600000406020004060400040606000406080004060A0004060C0004060E00040800000408020004080400040806000408080004080A0004080C0004080E00040A0000040A0200040A0400040A0600040A0800040A0A00040A0C00040A0E00040C0000040C0200040C0400040C0600040C08000
310
40C0A00040C0C00040C0E00040E0000040E0200040E0400040E0600040E0800040E0A00040E0C00040E0E00080000000800020008000400080006000800080008000A0008000C0008000E00080200000802020008020400080206000802080008020A0008020C0008020E00080400000804020008040400080406000804080
310
008040A0008040C0008040E00080600000806020008060400080606000806080008060A0008060C0008060E00080800000808020008080400080806000808080008080A0008080C0008080E00080A0000080A0200080A0400080A0600080A0800080A0A00080A0C00080A0E00080C0000080C0200080C0400080C0600080C0
310
800080C0A00080C0C00080C0E00080E0000080E0200080E0400080E0600080E0800080E0A00080E0C00080E0E000C0000000C0002000C0004000C0006000C0008000C000A000C000C000C000E000C0200000C0202000C0204000C0206000C0208000C020A000C020C000C020E000C0400000C0402000C0404000C0406000C0
310
408000C040A000C040C000C040E000C0600000C0602000C0604000C0606000C0608000C060A000C060C000C060E000C0800000C0802000C0804000C0806000C0808000C080A000C080C000C080E000C0A00000C0A02000C0A04000C0A06000C0A08000C0A0A000C0A0C000C0A0E000C0C00000C0C02000C0C04000C0C06000
310
C0C08000C0C0A000F0FBFF00A4A0A000808080000000FF0000FF000000FFFF00FF000000FF00FF00FFFF0000FFFFFF00A4A4A4A4A4A4A4A4A4A4A4A4A4A4A4A4A4A4A4A4A4A4A4A4A4A4A4A4A4A4A4A4A4A4A4A4A4A4A4A4A4A4A4A4A4A4A4A4A4A4A4A4A4A4A4A4A4A4A4A4A4A4A4A4A4A4A4A4A4A4A4A4A4A4A4A4A4A4A4
310
A4A4A4A4A4A4A4A4A4A4A4A4A4A4A4A4A4A4A4A4A4A4A4A4A4A4A4A4A4A4A4A4A4A4A4A4A4A4A4A4A4A4A4A4A4A4A4A4A4A4A4A4A4A4A4A4A4A4A4A4A4A4A4A4A4A4A4A4A4A4A4A4A4A4A4A4A4A4A4A4A4A4A4A4A4A4A4A4A4A4A4A4A4A4A4A4A4A4A4A4A4A4A4A4A4A4A4A4A4A4A4A4A4A4A4A4A4A4A4A4A4A4A4A4A4A4A4
310
A4A4A4A4A4A4A4A4A4A4A4A4A4A4A4A4A4A4A4A4A4A4A4A4A4A4A4A4A4A4A4A4A4A4A4A4A4A4A4A4A4A4A4A4A4A4A4A4A4A4A4A4A4A4A4A4A4A4A4A4A4A4A4A4A4A4A4A4A4A4A4A4A4A4A4A4A4A4A4A4A4A4A4A4A4A4A4A4A4A4A4A4A4A4A4A4A4A4A4A4A4A4A4A4A4A4A4A4A4A4A4A4A4A4A4A4A4A4A4A4A4A4A4A4A4A4A4
310
A4A4A4A4A4A4A4A4A4A4A4A4A4A4A4A4A4A4A4A4A4A4A4A4A4A4A4A4A4A4A4A4A4A4A4A4A4A4A4A4A4A4A4A4A4A4A4A4A4A4A4A4A4A4A4A4A4A4A4A4A4A4A4A4A4A4A4A4A4A4A4A4A4A4A4A4A4A4A4A4A4A4A4A4A4A4A4A4A4A4A4A4A4A4A4A4A4A4A4A4A4A4A4A4A4A4A4A4A4A4A4A4A4A4A4A4F9F9F9F9F9F9F9F9F9F9F9
310
F9F9F9F9F9F9F9F9F9F9F9F9F9F9F9F9F9F9F9A4A4F9F9F9F9F9F9F9F9F9F9F9F9F9F9F9F9F9F9F9F9F9F9F9F9F9F9F9F9F9F9A4A4F9F9F9F9F9F9F9F9F9F9F9F9F9F9F9F9F9F9F9F9F9F9F9F9F9F9F9F9F9F9A4A4F9A4A4A4A4A4A4A4A4A4A4A4A4A4A4A4A4A4A4A4A4A4A4A4A4A4A4A4A4F9A4A4A4A4A4A4A4A4A4A4A4A4
310
A4A4A4A4A4A4A4A4A4A4A4A4A4A4A4A4A4A4A4A4A4A4A4A4A4A4A4A4A4A4A4A4A4A4A4A4A4A4A4A4A4A4A4A4A4A4A4A4A4A4A4A4A4A4A4A4A4A4A4A4A4A4A4A4A4A4A4A4A4A4A4A4A4A4A4A4A4A4A4A4A4A4A4A4A4A4A4A4A4A4A4A4A4A4A4A4A4A4A4A4A4A4A4A4A4A4A4A4A4A4A4A4A4A4A4A4A4A4A4A4A4A4A4A4A4A4A4
310
A4A4A4A4A4A4A4A4A4A4A4A4A4A4A4A4A4A4A4A4A4A4A4A4A4A4A4A4A4A4A4A4A4A4A4A4A4A4A4A4A4A4A4A4A4A4A4A4A4A4A4A4A4A4A4A4A4A4A4A4A4A4A4A4A4A4A4A4A4A4A4A4A4A4A4A4A4A4A4A4A4A4A4A4A4A4A4A4A4A4A4A4A4A4A4A4A4A4A4A4A4A4A4A4A4A4A4A4A4A4A4A4A4A4A4A4A4A4A4A4A4A4A4A4A4A4A4
310
A4A4A4A4A4A4A4A4A4A4A4A4A4A4A4A4A4A4A4A4A4A4A4A4A4A4A4A4A4A4A4A4A4A4A4A4A4A4A4A4A4A4A4A4A4A4A4A4A4A4A4A4A4A4A4A4A4A4A4A4A4A4A4A4A4A4A4A4A4A4A4A4A4A4A4A4A4A4A4A4A4A4A4A4A4A4A4A4A4A4A4A4A4A4A4A4A4A4A4A4A4A4A4A4A4A4A4A4A4A4A4A4A4A4A4A4A4A4A4A4A4A4A4A4A4A4A4
310
A4A4A4A4A4A4A4A4A4A4A4A4A4A4A4A4A4A4A4A4A4A4A4A4A4A4A4A4A4A4A4A4A4A4A4A4A4A4A4A4A4A4A4A4A4A4A4A4A4A4A4A4A4A4A4A4
1001
ACAD
1000
DesignCenter Data
1002
{
1070
     1
1070
     4
1002
}
  0
BLOCK_RECORD
  5
AA8
330
1
100
AcDbSymbolTableRecord
100
AcDbBlockTableRecord
  2
_CLOSED
340
0
  0
BLOCK_RECORD
  5
B79
330
1
100
AcDbSymbolTableRecord
100
AcDbBlockTableRecord
  2
nota revisoes
340
0
1001
ACAD
1000
DesignCenter Data
1002
{
1070
     1
1070
     4
1002
}
  0
BLOCK_RECORD
  5
B8E
330
1
100
AcDbSymbolTableRecord
100
AcDbBlockTableRecord
  2
a3l
340
0
1001
ACAD
1000
DesignCenter Data
1002
{
1070
     1
1070
     4
1002
}
  0
BLOCK_RECORD
  5
B9E
330
1
100
AcDbSymbolTableRecord
100
AcDbBlockTableRecord
  2
legenda desenvolvimento
340
0
1001
ACAD
1000
DesignCenter Data
1002
{
1070
     1
1070
     4
1002
}
  0
BLOCK_RECORD
  5
14E7
330
1
100
AcDbSymbolTableRecord
100
AcDbBlockTableRecord
  2
*D33
340
0
  0
BLOCK_RECORD
  5
14F3
330
1
100
AcDbSymbolTableRecord
100
AcDbBlockTableRecord
  2
*D34
340
0
  0
BLOCK_RECORD
  5
14FF
330
1
100
AcDbSymbolTableRecord
100
AcDbBlockTableRecord
  2
*D35
340
0
  0
BLOCK_RECORD
  5
150B
330
1
100
AcDbSymbolTableRecord
100
AcDbBlockTableRecord
  2
*D36
340
0
  0
BLOCK_RECORD
  5
1514
330
1
100
AcDbSymbolTableRecord
100
AcDbBlockTableRecord
  2
*D37
340
0
  0
BLOCK_RECORD
  5
151F
330
1
100
AcDbSymbolTableRecord
100
AcDbBlockTableRecord
  2
*D38
340
0
  0
BLOCK_RECORD
  5
152A
330
1
100
AcDbSymbolTableRecord
100
AcDbBlockTableRecord
  2
*D39
340
0
  0
BLOCK_RECORD
  5
1532
330
1
100
AcDbSymbolTableRecord
100
AcDbBlockTableRecord
  2
*D40
340
0
  0
BLOCK_RECORD
  5
153B
330
1
100
AcDbSymbolTableRecord
100
AcDbBlockTableRecord
  2
*D41
340
0
  0
BLOCK_RECORD
  5
1544
330
1
100
AcDbSymbolTableRecord
100
AcDbBlockTableRecord
  2
*D42
340
0
  0
BLOCK_RECORD
  5
1552
330
1
100
AcDbSymbolTableRecord
100
AcDbBlockTableRecord
  2
*D43
340
0
  0
BLOCK_RECORD
  5
155B
330
1
100
AcDbSymbolTableRecord
100
AcDbBlockTableRecord
  2
*D44
340
0
  0
BLOCK_RECORD
  5
1564
330
1
100
AcDbSymbolTableRecord
100
AcDbBlockTableRecord
  2
*D45
340
0
  0
BLOCK_RECORD
  5
1570
102
{ACAD_XDICTIONARY
360
16DE
102
}
330
1
100
AcDbSymbolTableRecord
100
AcDbBlockTableRecord
  2
A$C2EB118AF
340
0
1001
ACAD
1000
DesignCenter Data
1002
{
1070
     1
1070
     4
1002
}
  0
ENDTAB
  0
ENDSEC
  0
SECTION
  2
BLOCKS
  0
BLOCK
  5
20
330
1F
100
AcDbEntity
  8
0
100
AcDbBlockBegin
  2
*Model_Space
 70
     0
 10
0.0
 20
0.0
 30
0.0
  3
*Model_Space
  1

  0
ENDBLK
  5
21
330
1F
100
AcDbEntity
  8
0
100
AcDbBlockEnd
  0
BLOCK
  5
1C
330
1B
100
AcDbEntity
 67
     1
  8
0
100
AcDbBlockBegin
  2
*Paper_Space
 70
     0
 10
0.0
 20
0.0
 30
0.0
  3
*Paper_Space
  1

  0
ENDBLK
  5
1D
330
1B
100
AcDbEntity
 67
     1
  8
0
100
AcDbBlockEnd
  0
BLOCK
  5
24
330
23
100
AcDbEntity
 67
     1
  8
0
100
AcDbBlockBegin
  2
*Paper_Space0
 70
     0
 10
0.0
 20
0.0
 30
0.0
  3
*Paper_Space0
  1

  0
ENDBLK
  5
25
330
23
100
AcDbEntity
 67
     1
  8
0
100
AcDbBlockEnd
  0
BLOCK
  5
91B
330
919
100
AcDbEntity
  8
0
100
AcDbBlockBegin
  2
_DotSmall
 70
     0
 10
0.0
 20
0.0
 30
0.0
  3
_DotSmall
  1

  0
LWPOLYLINE
  5
91A
330
919
100
AcDbEntity
  8
0
  6
ByBlock
 62
     0
100
AcDbPolyline
 90
        2
 70
     1
 43
0.5
 10
-0.0625
 20
0.0
 42
1.0
 10
0.0625
 20
0.0
 42
1.0
  0
ENDBLK
  5
91C
330
919
100
AcDbEntity
  8
0
100
AcDbBlockEnd
  0
BLOCK
  5
92A
330
922
100
AcDbEntity
  8
0
100
AcDbBlockBegin
  2
base para cotas
 70
     0
 10
0.0
 20
0.0
 30
0.0
  3
base para cotas
  1

  0
LINE
  5
B36
330
922
100
AcDbEntity
  8
cotas
100
AcDbLine
 10
0.0
 20
-30.0
 30
0.0
 11
327.1260136525398
 21
-30.0
 31
0.0
  0
LINE
  5
B37
330
922
100
AcDbEntity
  8
cotas
100
AcDbLine
 10
0.0
 20
-25.0
 30
0.0
 11
327.1260136525398
 21
-25.0
 31
0.0
  0
LINE
  5
B38
330
922
100
AcDbEntity
  8
cotas
100
AcDbLine
 10
0.0
 20
-20.0
 30
0.0
 11
327.1260136525398
 21
-20.0
 31
0.0
  0
LINE
  5
B39
330
922
100
AcDbEntity
  8
cotas
100
AcDbLine
 10
0.0
 20
-15.0
 30
0.0
 11
327.1260136525398
 21
-15.0
 31
0.0
  0
LINE
  5
B3A
330
922
100
AcDbEntity
  8
cotas
100
AcDbLine
 10
0.0
 20
-10.0
 30
0.0
 11
327.1260136525398
 21
-10.0
 31
0.0
  0
LINE
  5
B3B
330
922
100
AcDbEntity
  8
cotas
100
AcDbLine
 10
0.0
 20
0.0
 30
0.0
 11
0.0
 21
-30.0
 31
0.0
  0
LINE
  5
B3C
330
922
100
AcDbEntity
  8
cotas
100
AcDbLine
 10
327.1260136525398
 20
-30.0
 30
0.0
 11
327.1260136525398
 21
0.0
 31
0.0
  0
ENDBLK
  5
92B
330
922
100
AcDbEntity
  8
0
100
AcDbBlockEnd
  0
BLOCK
  5
AAD
330
AA8
100
AcDbEntity
  8
0
100
AcDbBlockBegin
  2
_CLOSED
 70
     0
 10
0.0
 20
0.0
 30
0.0
  3
_CLOSED
  1

  0
LINE
  5
AA9
330
AA8
100
AcDbEntity
  8
0
100
AcDbLine
 10
-1.0
 20
0.166667
 30
0.0
 11
0.0
 21
0.0
 31
0.0
  0
LINE
  5
AAA
330
AA8
100
AcDbEntity
  8
0
100
AcDbLine
 10
0.0
 20
0.0
 30
0.0
 11
-1.0
 21
-0.166667
 31
0.0
  0
LINE
  5
AAB
330
AA8
100
AcDbEntity
  8
0
100
AcDbLine
 10
-1.0
 20
0.166667
 30
0.0
 11
-1.0
 21
-0.166667
 31
0.0
  0
LINE
  5
AAC
330
AA8
100
AcDbEntity
  8
0
100
AcDbLine
 10
0.0
 20
0.0
 30
0.0
 11
-1.0
 21
0.0
 31
0.0
  0
ENDBLK
  5
AAE
330
AA8
100
AcDbEntity
  8
0
100
AcDbBlockEnd
  0
BLOCK
  5
B7C
330
B79
100
AcDbEntity
  8
0
100
AcDbBlockBegin
  2
nota revisoes
 70
     0
 10
0.0
 20
0.0
 30
0.0
  3
nota revisoes
  1

  0
CIRCLE
  5
B7A
330
B79
100
AcDbEntity
  8
4
100
AcDbCircle
 10
0.0
 20
0.0
 30
0.0
 40
13.69426055101189
  0
TEXT
  5
B7B
330
B79
100
AcDbEntity
  8
4
100
AcDbText
 10
-5.496248358154345
 20
-5.354545554066362
 30
0.0
 40
12.0
  1
1
  7
SANINDUSA
 72
     1
 11
-0.249774214433728
 21
-5.354545554066362
 31
0.0
100
AcDbText
  0
ENDBLK
  5
B7D
330
B79
100
AcDbEntity
  8
0
100
AcDbBlockEnd
  0
BLOCK
  5
B9C
330
B8E
100
AcDbEntity
  8
0
100
AcDbBlockBegin
  2
a3l
 70
     0
 10
0.0
 20
0.0
 30
0.0
  3
a3l
  1

  0
LINE
  5
B8F
330
B8E
100
AcDbEntity
  8
1
100
AcDbLine
 10
-364.2925296599447
 20
-362.1188951399395
 30
0.0
 11
-364.2925296599447
 21
-65.11889513993946
 31
0.0
  0
LINE
  5
B90
330
B8E
100
AcDbEntity
  8
4
100
AcDbLine
 10
-369.2925296599447
 20
-357.1188951399395
 30
0.0
 11
-369.2925296599447
 21
-70.11889513993946
 31
0.0
  0
LINE
  5
B91
330
B8E
100
AcDbEntity
  8
1
100
AcDbLine
 10
-784.2925296599446
 20
-65.11889513993946
 30
0.0
 11
-784.2925296599446
 21
-362.1188951399395
 31
0.0
  0
LINE
  5
B92
330
B8E
100
AcDbEntity
  8
4
100
AcDbLine
 10
-759.2925296599446
 20
-357.1188951399395
 30
0.0
 11
-759.2925296599446
 21
-70.11889513993946
 31
0.0
  0
LINE
  5
B93
330
B8E
100
AcDbEntity
  8
1
100
AcDbLine
 10
-784.2925296599446
 20
-362.1188951399395
 30
0.0
 11
-364.2925296599447
 21
-362.1188951399395
 31
0.0
  0
LINE
  5
B94
330
B8E
100
AcDbEntity
  8
4
100
AcDbLine
 10
-759.2925296599446
 20
-357.1188951399395
 30
0.0
 11
-369.2925296599447
 21
-357.1188951399395
 31
0.0
  0
LINE
  5
B95
330
B8E
100
AcDbEntity
  8
1
100
AcDbLine
 10
-654.2925296599446
 20
-357.1188951399395
 30
0.0
 11
-654.2925296599446
 21
-362.1188951399395
 31
0.0
  0
LINE
  5
B96
330
B8E
100
AcDbEntity
  8
1
100
AcDbLine
 10
-364.2925296599447
 20
-65.11889513993946
 30
0.0
 11
-784.2925296599446
 21
-65.11889513993946
 31
0.0
  0
LINE
  5
B97
330
B8E
100
AcDbEntity
  8
4
100
AcDbLine
 10
-369.2925296599447
 20
-70.11889513993946
 30
0.0
 11
-759.2925296599446
 21
-70.11889513993946
 31
0.0
  0
LINE
  5
B98
330
B8E
100
AcDbEntity
  8
1
100
AcDbLine
 10
-654.2925296599446
 20
-65.11889513993946
 30
0.0
 11
-654.2925296599446
 21
-70.11889513993946
 31
0.0
  0
LINE
  5
B99
330
B8E
100
AcDbEntity
  8
1
100
AcDbLine
 10
-549.2925296599446
 20
-70.11889513993946
 30
0.0
 11
-549.2925296599446
 21
-65.11889513993946
 31
0.0
  0
LINE
  5
B9A
330
B8E
100
AcDbEntity
  8
1
100
AcDbLine
 10
-369.2925296599447
 20
-65.11889513993946
 30
0.0
 11
-364.2925296599447
 21
-65.11889513993946
 31
0.0
  0
LINE
  5
B9B
330
B8E
100
AcDbEntity
  8
1
100
AcDbLine
 10
-549.2925296599446
 20
-357.1188951399395
 30
0.0
 11
-549.2925296599446
 21
-362.1188951399395
 31
0.0
  0
ENDBLK
  5
B9D
330
B8E
100
AcDbEntity
  8
0
100
AcDbBlockEnd
  0
BLOCK
  5
C13
330
B9E
100
AcDbEntity
  8
0
100
AcDbBlockBegin
  2
legenda desenvolvimento
 70
     2
 10
0.0
 20
0.0
 30
0.0
  3
legenda desenvolvimento
  1

  0
ATTDEF
  5
B9F
330
B9E
100
AcDbEntity
  8
1
100
AcDbText
 10
-108.606245802552
 20
55.5
 30
0.0
 40
4.0
  1
XXXXXXXXXXXXXX
 41
0.8
  7
SANINDUSA
 72
     4
 11
-87.5
 21
57.5
 31
0.0
100
AcDbAttributeDefinition
  3
Nome do Produto:
  2
PRODUTO
 70
     0
  0
ATTDEF
  5
BA0
330
B9E
100
AcDbEntity
  8
1
100
AcDbText
 10
-97.9997966101695
 20
41.25
 30
0.0
 40
3.0
  1
XXXXXXXXX
 41
0.8
  7
futura
 72
     4
 11
-87.5
 21
42.75
 31
0.0
100
AcDbAttributeDefinition
  3
Nome da Peça:
  2
PECA
 70
     0
  0
ATTDEF
  5
BA1
330
B9E
100
AcDbEntity
  8
1
100
AcDbText
 10
-133.4422431161853
 20
21.11745296763252
 30
0.0
 40
2.5
  1
X
 41
0.8
  7
SANINDUSA
 72
     4
 11
-132.5
 21
22.36745296763252
 31
0.0
100
AcDbAttributeDefinition
  3
Cod. TESTE:
  2
TESTE
 70
     0
  0
ATTDEF
  5
BA2
330
B9E
100
AcDbEntity
  8
1
100
AcDbText
 10
-124.3844862323707
 20
21.11745296763252
 30
0.0
 40
2.5
  1
XX
 41
0.8
  7
SANINDUSA
 72
     4
 11
-122.5
 21
22.36745296763252
 31
0.0
100
AcDbAttributeDefinition
  3
Cod. Ano:
  2
ANO
 70
     0
  0
ATTDEF
  5
BA3
330
B9E
100
AcDbEntity
  8
1
100
AcDbText
 10
-112.526889953052
 20
21.11745296763252
 30
0.0
 40
2.5
  1
XXX
 41
0.8
  7
SANINDUSA
 72
     4
 11
-109.700160604496
 21
22.36745296763252
 31
0.0
100
AcDbAttributeDefinition
  3
Cod. Sequência:
  2
SEQUENCIA
 70
     0
  0
ATTDEF
  5
BA4
330
B9E
100
AcDbEntity
  8
1
100
AcDbText
 10
-99.35382430979316
 20
21.11745296763252
 30
0.0
 40
2.5
  1
XX
 41
0.8
  7
SANINDUSA
 72
     4
 11
-97.46933807742244
 21
22.36745296763252
 31
0.0
100
AcDbAttributeDefinition
  3
Cod. Tipo:
  2
TIPO
 70
     0
  0
ATTDEF
  5
BA5
330
B9E
100
AcDbEntity
  8
1
100
AcDbText
 10
-87.42035911468438
 20
21.11745296763252
 30
0.0
 40
2.5
  1
XXX
 41
0.8
  7
SANINDUSA
 72
     4
 11
-84.59362976612828
 21
22.36745296763252
 31
0.0
100
AcDbAttributeDefinition
  3
Cod. Produto:
  2
PRODUTO
 70
     0
  0
ATTDEF
  5
BA6
330
B9E
100
AcDbEntity
  8
1
100
AcDbText
 10
-74.62051971917853
 20
21.11745296763252
 30
0.0
 40
2.5
  1
XXX
 41
0.8
  7
SANINDUSA
 72
     4
 11
-71.79379037062244
 21
22.36745296763252
 31
0.0
100
AcDbAttributeDefinition
  3
Cod. Peça:
  2
PECA
 70
     0
  0
ATTDEF
  5
BA7
330
B9E
100
AcDbEntity
  8
1
100
AcDbText
 10
-61.10603446650329
 20
21.11745296763252
 30
0.0
 40
2.5
  1
XX
 41
0.8
  7
SANINDUSA
 72
     4
 11
-59.22154823413257
 21
22.36745296763252
 31
0.0
100
AcDbAttributeDefinition
  3
Cod. Revisão:
  2
REV
 70
     0
  0
ATTDEF
  5
BA8
330
B9E
100
AcDbEntity
  8
1
100
AcDbText
 10
-48.43615325006194
 20
21.11745296763252
 30
0.0
 40
2.5
  1
XX
 41
0.8
  7
SANINDUSA
 72
     4
 11
-46.55166701769121
 21
22.36745296763252
 31
0.0
100
AcDbAttributeDefinition
  3
Cod. Alteração:
  2
ALT
 70
     0
  0
ATTDEF
  5
BA9
330
B9E
100
AcDbEntity
  8
1
100
AcDbText
 10
-35.19086635325722
 20
23.98875083948959
 30
0.0
 40
3.0
  1
1/XXX
 41
0.8
  7
SANINDUSA
 72
     4
 11
-30.0
 21
25.25
 31
0.0
100
AcDbAttributeDefinition
  3
Escala geral:
  2
ESCALA
 70
     0
  0
ATTDEF
  5
BAA
330
B9E
100
AcDbEntity
  8
1
100
AcDbText
 10
-15.65345869711215
 20
23.75
 30
0.0
 40
3.0
  1
XXXXX
 41
0.8
  7
SANINDUSA
 72
     4
 11
-10.0
 21
25.25
 31
0.0
100
AcDbAttributeDefinition
  3
Folha:
  2
FOLHA
 70
     0
  0
ATTDEF
  5
BAB
330
B9E
100
AcDbEntity
  8
1
100
AcDbText
 10
-178.5146998822042
 20
56.9531347542807
 30
0.0
 40
2.0
  1
xx
 41
0.8
  7
SANINDUSA
 72
     4
 11
-177.2123493113513
 21
57.70330265219877
 31
0.0
100
AcDbAttributeDefinition
  3
revisão
  2
REV.
 70
     0
  0
ATTDEF
  5
BAC
330
B9E
100
AcDbEntity
  8
1
100
AcDbText
 10
-172.7849640077129
 20
56.9531347542807
 30
0.0
 40
2.0
  1
xx
 41
0.8
  7
SANINDUSA
 72
     4
 11
-171.48261343686
 21
57.70330265219877
 31
0.0
100
AcDbAttributeDefinition
  3
alteração
  2
ALT.
 70
     0
  0
ATTDEF
  5
BAD
330
B9E
100
AcDbEntity
  8
1
100
AcDbText
 10
-168.007199951307
 20
56.70330265219877
 30
0.0
 40
2.0
  1
xx/xx/xxxx
 41
0.8
  7
SANINDUSA
 11
-168.007199951307
 21
57.70330265219877
 31
0.0
100
AcDbAttributeDefinition
  3
data
  2
DATA
 70
     0
 74
     2
  0
ATTDEF
  5
BAE
330
B9E
100
AcDbEntity
  8
1
100
AcDbText
 10
-168.5396372253371
 20
13.15916722632639
 30
0.0
 40
2.0
  1
XX/XX/XXXX
 41
0.8
  7
SANINDUSA
 72
     4
 11
-161.5099528734231
 21
14.0
 31
0.0
100
AcDbAttributeDefinition
  3
Data projecto
  2
DATA_PROJ
 70
     0
  0
ATTDEF
  5
BAF
330
B9E
100
AcDbEntity
  8
1
100
AcDbText
 10
-150.8658110728766
 20
13.24983210208193
 30
0.0
 40
2.0
  1
xxxxxxxx
 41
0.8
  7
SANINDUSA
 72
     4
 11
-145.6564087894649
 21
14.0
 31
0.0
100
AcDbAttributeDefinition
  3
nome de quem projectou
  2
NOME
 70
     0
  0
ATTDEF
  5
BB0
330
B9E
100
AcDbEntity
  8
1
100
AcDbText
 10
-168.5396372253371
 20
9.159167226326394
 30
0.0
 40
2.0
  1
XX/XX/XXXX
 41
0.8
  7
SANINDUSA
 72
     4
 11
-161.5099528734231
 21
10.0
 31
0.0
100
AcDbAttributeDefinition
  3
Data desenhou
  2
DATA_DES
 70
     0
  0
ATTDEF
  5
BB1
330
B9E
100
AcDbEntity
  8
1
100
AcDbText
 10
-151.516986358303
 20
9.249832102081933
 30
0.0
 40
2.0
  1
xxxxxxxxx
 41
0.8
  7
SANINDUSA
 72
     4
 11
-145.6564087894649
 21
10.0
 31
0.0
100
AcDbAttributeDefinition
  3
nome
  2
NOME
 70
     0
  0
ATTDEF
  5
BB2
330
B9E
100
AcDbEntity
  8
1
100
AcDbText
 10
-127.2924214135946
 20
14.1979876583216
 30
0.0
 40
2.0
  1
Vitreous China
 41
0.8
  7
SANINDUSA
 72
     4
 11
-119.231709526422
 21
15.22216495852308
 31
0.0
100
AcDbAttributeDefinition
  3
Nome do Material:
  2
MATERIAL
 70
     0
  0
ATTDEF
  5
BB3
330
B9E
100
AcDbEntity
  8
1
100
AcDbText
 10
-103.1563452122093
 20
14.38019043949261
 30
0.0
 40
2.0
  1
Branco
 41
0.8
  7
SANINDUSA
 72
     4
 11
-99.33418268702462
 21
15.35937109765245
 31
0.0
100
AcDbAttributeDefinition
  3
cor da peça
  2
COR
 70
     0
  0
ATTDEF
  5
BB4
330
B9E
100
AcDbEntity
  8
1
100
AcDbText
 10
-116.7235057085292
 20
5.975822699798522
 30
0.0
 40
2.0
  1
Vidrado
 41
0.8
  7
SANINDUSA
 72
     4
 11
-112.5
 21
7.0
 31
0.0
100
AcDbAttributeDefinition
  3
Tipo de acabamento:
  2
ACABAMENTO
 70
     0
  0
ATTDEF
  5
BB5
330
B9E
100
AcDbEntity
  8
1
100
AcDbText
 10
-79.18527869967246
 20
16.65066409850533
 30
0.0
 40
2.0
  1
XXXXXXX
 41
0.8
  7
SANINDUSA
 72
     4
 11
-73.90871724903445
 21
17.65066409850533
 31
0.0
100
AcDbAttributeDefinition
  3
Normas
  2
NORMAS
 70
     0
  0
ATTDEF
  5
BB6
330
B9E
100
AcDbEntity
  8
1
100
AcDbText
 10
-30.55312290127603
 20
14.0
 30
0.0
 40
2.0
  1
XXXXXXXXXXXXXX
 41
0.8
  7
SANINDUSA
 72
     4
 11
-20.0
 21
15.0
 31
0.0
100
AcDbAttributeDefinition
  3
Substitui o desenho:
  2
SUBSTITUI
 70
     0
  0
ATTDEF
  5
BB7
330
B9E
100
AcDbEntity
  8
1
100
AcDbText
 10
-31.30691739422431
 20
6.0
 30
0.0
 40
2.0
  1
XXXXXXXXXXXXXXX
 41
0.8
  7
SANINDUSA
 72
     4
 11
-20.0
 21
7.0
 31
0.0
100
AcDbAttributeDefinition
  3
Substituido por:
  2
SUBSTITUIDO
 70
     0
  0
ATTDEF
  5
BB8
330
B9E
100
AcDbEntity
  8
1
100
AcDbText
 10
-110.0220608548302
 20
1.478208457928303
 30
0.0
 40
2.0
  1
XXXXXXXXXXXXXXXXXXXXXXXXXXXXXXXXXX
 41
0.8
  7
SANINDUSA
 11
-110.0220608548302
 21
2.478208457928303
 31
0.0
100
AcDbAttributeDefinition
  3
Localização do desenho:
  2
LOC-DWG
 70
     0
 74
     2
  0
LINE
  5
BB9
330
B9E
100
AcDbEntity
  8
3
100
AcDbLine
 10
-135.0
 20
4.0
 30
0.0
 11
0.0000000000004547
 21
4.0
 31
0.0
  0
LINE
  5
BBA
330
B9E
100
AcDbEntity
  8
3
100
AcDbLine
 10
-90.00000000000046
 20
12.0
 30
0.0
 11
-135.0
 21
12.0
 31
0.0
  0
LINE
  5
BBB
330
B9E
100
AcDbEntity
  8
3
100
AcDbLine
 10
-135.0
 20
32.5
 30
0.0
 11
-40.0
 21
32.5
 31
0.0
  0
TEXT
  5
BBC
330
B9E
100
AcDbEntity
  8
1
100
AcDbText
 10
-134.0
 20
1.25
 30
0.0
 40
2.0
  1
Localização do des.:
 41
0.8
  7
SANINDUSA
 11
-134.0
 21
2.25
 31
0.0
100
AcDbText
 73
     2
  0
LINE
  5
BBD
330
B9E
100
AcDbEntity
  8
3
100
AcDbLine
 10
-180.0
 20
65.0
 30
0.0
 11
0.0
 21
65.0
 31
0.0
  0
LINE
  5
BBE
330
B9E
100
AcDbEntity
  8
leg fin
100
AcDbLine
 10
-40.0
 20
25.05956924886846
 30
0.0
 11
-135.0
 21
25.05956924886846
 31
0.0
  0
LINE
  5
BBF
330
B9E
100
AcDbEntity
  8
leg fin
100
AcDbLine
 10
-40.0
 20
28.5
 30
0.0
 11
-135.0
 21
28.5
 31
0.0
  0
LINE
  5
BC0
330
B9E
100
AcDbEntity
  8
3
100
AcDbLine
 10
-135.0
 20
50.0
 30
0.0
 11
-40.0
 21
50.0
 31
0.0
  0
TEXT
  5
BC1
330
B9E
100
AcDbEntity
  8
1
100
AcDbText
 10
-134.0
 20
29.75
 30
0.0
 40
2.0
  1
Desenho nº:
 41
0.8
  7
SANINDUSA
 11
-134.0
 21
30.75
 31
0.0
100
AcDbText
 73
     2
  0
TEXT
  5
BC2
330
B9E
100
AcDbEntity
  8
1
100
AcDbText
 10
-134.0
 20
9.25
 30
0.0
 40
2.0
  1
Acabamento:
 41
0.8
  7
SANINDUSA
 11
-134.0
 21
10.25
 31
0.0
100
AcDbText
 73
     2
  0
LINE
  5
BC3
330
B9E
100
AcDbEntity
  8
3
100
AcDbLine
 10
-180.0
 20
20.0
 30
0.0
 11
0.0
 21
20.0
 31
0.0
  0
LINE
  5
BC4
330
B9E
100
AcDbEntity
  8
1
100
AcDbLine
 10
-174.5810776056337
 20
55.5
 30
0.0
 11
-174.5810776056337
 21
65.0
 31
0.0
  0
LINE
  5
BC5
330
B9E
100
AcDbEntity
  8
1
100
AcDbLine
 10
-168.9210461879161
 20
55.5
 30
0.0
 11
-168.9210461879161
 21
65.0
 31
0.0
  0
LINE
  5
BC6
330
B9E
100
AcDbEntity
  8
1
100
AcDbLine
 10
-154.0988595589306
 20
55.5
 30
0.0
 11
-154.0988595589306
 21
65.0
 31
0.0
  0
LINE
  5
BC7
330
B9E
100
AcDbEntity
  8
3
100
AcDbLine
 10
-180.0
 20
65.0
 30
0.0
 11
-180.0
 21
0.0
 31
0.0
  0
LINE
  5
BC8
330
B9E
100
AcDbEntity
  8
3
100
AcDbLine
 10
-135.0
 20
0.0
 30
0.0
 11
-135.0
 21
65.0
 31
0.0
  0
TEXT
  5
BC9
330
B9E
100
AcDbEntity
  8
1
100
AcDbText
 10
-179.0
 20
9.75
 30
0.0
 40
1.5
  1
Des.
 41
0.8
  7
SANINDUSA
 11
-179.0
 21
10.5
 31
0.0
100
AcDbText
 73
     2
  0
LINE
  5
BCA
330
B9E
100
AcDbEntity
  8
1
100
AcDbLine
 10
-168.9210461879161
 20
20.0
 30
0.0
 11
-168.9210461879161
 21
0.0
 31
0.0
  0
LINE
  5
BCB
330
B9E
100
AcDbEntity
  8
1
100
AcDbLine
 10
-154.0988595589306
 20
20.0
 30
0.0
 11
-154.0988595589306
 21
0.0
 31
0.0
  0
LINE
  5
BCC
330
B9E
100
AcDbEntity
  8
1
100
AcDbLine
 10
-180.0
 20
4.0
 30
0.0
 11
-135.0
 21
4.0
 31
0.0
  0
LINE
  5
BCD
330
B9E
100
AcDbEntity
  8
1
100
AcDbLine
 10
-180.0
 20
8.0
 30
0.0
 11
-135.0
 21
8.0
 31
0.0
  0
TEXT
  5
BCE
330
B9E
100
AcDbEntity
  8
1
100
AcDbText
 10
-179.0
 20
1.73257823687436
 30
0.0
 40
1.5
  1
Aprov.
 41
0.8
  7
SANINDUSA
 11
-179.0
 21
2.48257823687436
 31
0.0
100
AcDbText
 73
     2
  0
TEXT
  5
BCF
330
B9E
100
AcDbEntity
  8
1
100
AcDbText
 10
-179.0
 20
5.75
 30
0.0
 40
1.5
  1
Ver.
 41
0.8
  7
SANINDUSA
 11
-179.0
 21
6.5
 31
0.0
100
AcDbText
 73
     2
  0
LINE
  5
BD0
330
B9E
100
AcDbEntity
  8
1
100
AcDbLine
 10
-180.0
 20
16.0
 30
0.0
 11
-135.0
 21
16.0
 31
0.0
  0
LINE
  5
BD1
330
B9E
100
AcDbEntity
  8
1
100
AcDbLine
 10
-180.0
 20
12.0
 30
0.0
 11
-135.0
 21
12.0
 31
0.0
  0
TEXT
  5
BD2
330
B9E
100
AcDbEntity
  8
1
100
AcDbText
 10
-179.0
 20
13.75
 30
0.0
 40
1.5
  1
Proj.
 41
0.8
  7
SANINDUSA
 11
-179.0
 21
14.5
 31
0.0
100
AcDbText
 73
     2
  0
TEXT
  5
BD3
330
B9E
100
AcDbEntity
  8
1
100
AcDbText
 10
-167.9210461879161
 20
17.75
 30
0.0
 40
1.5
  1
Data
 41
0.8
  7
SANINDUSA
 11
-167.9210461879161
 21
18.5
 31
0.0
100
AcDbText
 73
     2
  0
TEXT
  5
BD4
330
B9E
100
AcDbEntity
  8
1
100
AcDbText
 10
-153.0988595589306
 20
17.75
 30
0.0
 40
1.5
  1
Nome
 41
0.8
  7
SANINDUSA
 11
-153.0988595589306
 21
18.5
 31
0.0
100
AcDbText
 73
     2
  0
LINE
  5
BD5
330
B9E
100
AcDbEntity
  8
leg fin
100
AcDbLine
 10
-130.0
 20
20.0
 30
0.0
 11
-130.0
 21
28.5
 31
0.0
  0
TEXT
  5
BD6
330
B9E
100
AcDbEntity
  8
1
100
AcDbText
 10
-134.0
 20
17.25
 30
0.0
 40
2.0
  1
Material:
 41
0.8
  7
SANINDUSA
 11
-134.0
 21
18.25
 31
0.0
100
AcDbText
 73
     2
  0
TEXT
  5
BD7
330
B9E
100
AcDbEntity
  8
1
100
AcDbText
 10
-129.0
 20
26.43288406845113
 30
0.0
 40
1.5
  1
Ano:
 41
0.8
  7
SANINDUSA
 11
-129.0
 21
27.18288406845113
 31
0.0
100
AcDbText
 73
     2
  0
LINE
  5
BD8
330
B9E
100
AcDbEntity
  8
1
100
AcDbLine
 10
-180.0
 20
55.5
 30
0.0
 11
-135.0
 21
55.5
 31
0.0
  0
TEXT
  5
BD9
330
B9E
100
AcDbEntity
  8
1
100
AcDbText
 10
-179.0
 20
52.67772246885193
 30
0.0
 40
1.5
  1
descrição
 41
0.8
  7
SANINDUSA
 11
-179.0
 21
53.42772246885193
 31
0.0
100
AcDbText
 73
     2
  0
TEXT
  5
BDA
330
B9E
100
AcDbEntity
  8
1
100
AcDbText
 10
-134.0
 20
47.25
 30
0.0
 40
2.0
  1
Peça:
 41
0.8
  7
SANINDUSA
 11
-134.0
 21
48.25
 31
0.0
100
AcDbText
 73
     2
  0
LINE
  5
BDB
330
B9E
100
AcDbEntity
  8
1
100
AcDbLine
 10
-180.0
 20
59.5
 30
0.0
 11
-135.0
 21
59.5
 31
0.0
  0
TEXT
  5
BDC
330
B9E
100
AcDbEntity
  8
1
100
AcDbText
 10
-173.5810776056337
 20
62.75
 30
0.0
 40
1.5
  1
Alt.
 41
0.8
  7
SANINDUSA
 11
-173.5810776056337
 21
63.5
 31
0.0
100
AcDbText
 73
     2
  0
TEXT
  5
BDD
330
B9E
100
AcDbEntity
  8
1
100
AcDbText
 10
-179.0
 20
62.75
 30
0.0
 40
1.5
  1
Rev.
 41
0.8
  7
SANINDUSA
 11
-179.0
 21
63.5
 31
0.0
100
AcDbText
 73
     2
  0
TEXT
  5
BDE
330
B9E
100
AcDbEntity
  8
1
100
AcDbText
 10
-167.9210461879161
 20
62.75
 30
0.0
 40
1.5
  1
Data
 41
0.8
  7
SANINDUSA
 11
-167.9210461879161
 21
63.5
 31
0.0
100
AcDbText
 73
     2
  0
TEXT
  5
BDF
330
B9E
100
AcDbEntity
  8
1
100
AcDbText
 10
-153.0988595589306
 20
62.75
 30
0.0
 40
1.5
  1
Nome
 41
0.8
  7
SANINDUSA
 11
-153.0988595589306
 21
63.5
 31
0.0
100
AcDbText
 73
     2
  0
TEXT
  5
BE0
330
B9E
100
AcDbEntity
  8
1
100
AcDbText
 10
-134.0
 20
62.25
 30
0.0
 40
2.0
  1
Produto:
 41
0.8
  7
SANINDUSA
 11
-134.0
 21
63.25
 31
0.0
100
AcDbText
 73
     2
  0
LINE
  5
BE1
330
B9E
100
AcDbEntity
  8
3
100
AcDbLine
 10
-40.0
 20
4.0
 30
0.0
 11
-40.0
 21
65.0
 31
0.0
  0
LWPOLYLINE
  5
BE2
102
{ACAD_REACTORS
330
BEC
102
}
330
B9E
100
AcDbEntity
  8
9
100
AcDbPolyline
 90
       12
 70
     1
 43
0.0
 10
-3.038714600644652
 20
58.90010174665076
 10
-5.726962862472191
 20
58.90010174665076
 10
-5.726962862472191
 20
58.5001017466509
 10
-3.038748516195028
 20
58.5001017466509
 42
-0.4142135623731731
 10
-2.638748516194482
 20
58.1001017466508
 10
-2.638748516194482
 20
57.42799728675596
 10
-5.21497371544865
 20
57.42799728675596
 42
0.4142135623731289
 10
-6.014973715448377
 20
56.627997286756
 10
-6.014973715448377
 20
55.92380871629643
 42
0.4142135623731132
 10
-5.21497371544865
 20
55.12380871629648
 10
-2.23871460064447
 20
55.12380871629648
 10
-2.23871460064447
 20
58.10010174665103
 42
0.4142135623730717
  0
LWPOLYLINE
  5
BE3
102
{ACAD_REACTORS
330
BEC
102
}
330
B9E
100
AcDbEntity
  8
9
100
AcDbPolyline
 90
       20
 70
     1
 43
0.0
 10
-10.01531287095122
 20
57.82799728675581
 10
-10.01531287095122
 20
58.10010174665103
 42
-0.4142135623730744
 10
-9.615312870951584
 20
58.5001017466509
 10
-6.92703069357276
 20
58.5001017466509
 10
-6.92703069357276
 20
58.90010174665076
 10
-9.615346786501959
 20
58.90010174665076
 42
0.4142135623730883
 10
-10.41534678650168
 20
58.1001017466508
 10
-10.41534678650168
 20
57.82796337120567
 42
0.4142135623730717
 10
-9.615346786501959
 20
57.02796337120571
 10
-7.423079531965413
 20
57.02796337120571
 42
-0.4142135623730847
 10
-7.023079531965322
 20
56.62796337120562
 10
-7.023079531965322
 20
55.90786840766487
 42
-0.4142135623730744
 10
-7.423079531965413
 20
55.507868407665
 10
-10.41534678650168
 20
55.507868407665
 10
-10.41534678650168
 20
55.12380871629648
 10
-7.445787917283723
 20
55.12380871629648
 42
0.4114777732064574
 10
-6.645822882998345
 20
55.9163291493976
 10
-6.639238813324936
 20
56.62051771985716
 42
0.4169546541682913
 10
-7.439203847610315
 20
57.42799728675596
 10
-9.615312870951584
 20
57.42799728675596
 42
-0.4142135623731576
  0
LWPOLYLINE
  5
BE4
102
{ACAD_REACTORS
330
BEC
102
}
330
B9E
100
AcDbEntity
  8
9
100
AcDbPolyline
 90
       12
 70
     1
 43
0.0
 10
-14.41561811090378
 20
58.90010174665076
 10
-14.79964388672215
 20
58.90010174665076
 10
-14.79964388672215
 20
55.92380871629643
 42
0.4142135623731133
 10
-13.99964388672242
 20
55.12380871629648
 10
-11.8233508563676
 20
55.12380871629648
 42
0.4142135623730872
 10
-11.02335085636741
 20
55.92380871629643
 10
-11.02335085636741
 20
58.90010174665076
 10
-11.42338477191788
 20
58.90010174665076
 10
-11.42338477191788
 20
55.91567577726095
 42
-0.4131711701795318
 10
-11.82196067063523
 20
55.51567831234956
 10
-14.0141940096214
 20
55.50787335710947
 42
-0.4152567234624407
 10
-14.41561811090378
 20
55.90787082202087
  0
LWPOLYLINE
  5
BE5
102
{ACAD_REACTORS
330
BEC
102
}
330
B9E
100
AcDbEntity
  8
9
100
AcDbPolyline
 90
        6
 70
     1
 43
0.0
 10
-15.80771578768872
 20
55.507868407665
 10
-18.39994912667453
 20
55.507868407665
 42
-0.4142135623731731
 10
-18.79994912667462
 20
55.90786840766487
 10
-18.79994912667462
 20
58.10010174665103
 42
-0.4142135623730744
 10
-18.39994912667453
 20
58.5001017466509
 10
-15.80771578768872
 20
58.5001017466509
  0
LWPOLYLINE
  5
BE6
102
{ACAD_REACTORS
330
BEC
102
}
330
B9E
100
AcDbEntity
  8
9
100
AcDbPolyline
 90
        8
 70
     1
 43
0.0
 10
-15.4236900118708
 20
59.87619128370352
 10
-15.80771578768872
 20
59.87619128370352
 10
-15.80771578768872
 20
58.90010174665076
 10
-18.39176256411201
 20
58.90010174665076
 42
0.4131164467977967
 10
-19.19175694739761
 20
58.1030995310698
 10
-19.1999120763262
 20
55.92680650071542
 42
0.4153115297271718
 10
-18.39991769304061
 20
55.12380871629648
 10
-15.4236900118708
 20
55.12380871629648
  0
LWPOLYLINE
  5
BE7
102
{ACAD_REACTORS
330
BEC
102
}
330
B9E
100
AcDbEntity
  8
9
100
AcDbPolyline
 90
       10
 70
     1
 43
0.0
 10
-20.59201288790928
 20
58.90010174665076
 10
-23.56830591826338
 20
58.90010174665076
 10
-23.56830591826338
 20
55.12380871629648
 10
-23.18424622689509
 20
55.12380871629648
 10
-23.18424622689509
 20
58.5001017466509
 10
-20.59204680345965
 20
58.5001017466509
 42
-0.4142135623730898
 10
-20.19204680345956
 20
58.1001017466508
 10
-20.19204680345956
 20
55.12380871629648
 10
-19.79201288790909
 20
55.12380871629648
 10
-19.79201288790909
 20
58.10010174665103
 42
0.4142135623731132
  0
LWPOLYLINE
  5
BE8
102
{ACAD_REACTORS
330
BEC
102
}
330
B9E
100
AcDbEntity
  8
9
100
AcDbPolyline
 90
        4
 70
     1
 43
0.0
 10
-24.19231812786165
 20
58.90010174665076
 10
-24.57637781922995
 20
58.90010174665076
 10
-24.57637781922995
 20
55.12380871629648
 10
-24.19231812786165
 20
55.12380871629648
  0
LWPOLYLINE
  5
BE9
102
{ACAD_REACTORS
330
BEC
102
}
330
B9E
100
AcDbEntity
  8
9
100
AcDbPolyline
 90
       10
 70
     1
 43
0.0
 10
-28.57661522808212
 20
58.5001017466509
 10
-25.98444972019706
 20
58.5001017466509
 42
-0.4142135623731731
 10
-25.58444972019652
 20
58.1001017466508
 10
-25.58444972019652
 20
55.12380871629648
 10
-25.2004239443786
 20
55.12380871629648
 10
-25.2004239443786
 20
58.10010174665103
 42
0.4142135623730717
 10
-26.00042394437833
 20
58.90010174665076
 10
-28.97664914363259
 20
58.90010174665076
 10
-28.97664914363259
 20
55.12380871629648
 10
-28.57661522808212
 20
55.12380871629648
  0
LWPOLYLINE
  5
BEA
102
{ACAD_REACTORS
330
BEC
102
}
330
B9E
100
AcDbEntity
  8
9
100
AcDbPolyline
 90
       12
 70
     1
 43
0.0
 10
-29.58465321349832
 20
58.10010174665103
 42
0.4142135623730716
 10
-30.3846532134985
 20
58.90010174665076
 10
-33.07296930642724
 20
58.90010174665076
 10
-33.07296930642724
 20
58.5001017466509
 10
-30.38468712904842
 20
58.5001017466509
 42
-0.4142135623730067
 10
-29.98468712904878
 20
58.1001017466508
 10
-29.98468712904878
 20
57.42799728675618
 10
-32.56098015940324
 20
57.42799728675596
 42
0.4142135623731289
 10
-33.36098015940343
 20
56.627997286756
 10
-33.36098015940343
 20
55.92380871629643
 42
0.4142135623731132
 10
-32.56098015940324
 20
55.12380871629648
 10
-29.58465321349832
 20
55.12380871629648
  0
LWPOLYLINE
  5
BEB
102
{ACAD_REACTORS
330
BEC
102
}
330
B9E
100
AcDbEntity
  8
9
100
AcDbPolyline
 90
       20
 70
     1
 43
0.0
 10
-34.7850262845518
 20
57.42799728675596
 10
-36.96125148380543
 20
57.42799728675596
 42
-0.4142135623730898
 10
-37.36125148380552
 20
57.82799728675604
 10
-37.36125148380552
 20
58.10010174665103
 42
-0.4142135623730744
 10
-36.96125148380543
 20
58.5001017466509
 10
-34.27303713752781
 20
58.50010174665067
 10
-34.27303713752781
 20
58.90010174665076
 10
-36.96128539935535
 20
58.90010174665076
 42
0.4142135623731289
 10
-37.76128539935553
 20
58.1001017466508
 10
-37.76128539935553
 20
57.82796337120567
 42
0.4142135623730716
 10
-36.9612853993558
 20
57.02796337120571
 10
-34.76901814481926
 20
57.02796337120571
 42
-0.414213562373168
 10
-34.36901814481962
 20
56.62796337120562
 10
-34.36901814481962
 20
55.90786840766487
 42
-0.4142135623730744
 10
-34.76901814481926
 20
55.507868407665
 10
-37.76128539935553
 20
55.507868407665
 10
-37.76128539935553
 20
55.12380871629648
 10
-34.7850262845518
 20
55.12380871629648
 42
0.4142135623731289
 10
-33.98502628455162
 20
55.92380871629643
 10
-33.98502628455162
 20
56.627997286756
 42
0.4142135623731132
  0
HATCH
  5
BEC
330
B9E
100
AcDbEntity
  8
9
100
AcDbHatch
 10
0.0
 20
0.0
 30
0.0
210
0.0
220
0.0
230
1.0
  2
SOLID
 70
     1
 71
     1
 91
       13
 92
        7
 72
     1
 73
     1
 93
       20
 10
-34.36901814481962
 20
55.90786840766487
 42
-0.414213562372991
 10
-34.76901814481926
 20
55.507868407665
 42
0.0
 10
-37.76128539935553
 20
55.507868407665
 42
0.0
 10
-37.76128539935553
 20
55.12380871629648
 42
0.0
 10
-34.7850262845518
 20
55.12380871629648
 42
0.4142135623731705
 10
-33.98502628455162
 20
55.92380871629666
 42
0.0
 10
-33.98502628455162
 20
56.627997286756
 42
0.4142135623731547
 10
-34.7850262845518
 20
57.42799728675596
 42
0.0
 10
-36.96125148380543
 20
57.42799728675596
 42
-0.4142135623730898
 10
-37.36125148380552
 20
57.82799728675604
 42
0.0
 10
-37.36125148380552
 20
58.1001017466508
 42
-0.4142135623731575
 10
-36.96125148380543
 20
58.5001017466509
 42
0.0
 10
-34.27303713752781
 20
58.50010174665067
 42
0.0
 10
-34.27303713752781
 20
58.90010174665076
 42
0.0
 10
-36.96128539935535
 20
58.90010174665076
 42
0.4142135623731705
 10
-37.76128539935553
 20
58.10010174665058
 42
0.0
 10
-37.76128539935553
 20
57.82796337120544
 42
0.4142135623730299
 10
-36.9612853993558
 20
57.02796337120571
 42
0.0
 10
-34.76901814481926
 20
57.02796337120571
 42
-0.4142135623730015
 10
-34.36901814481962
 20
56.62796337120608
 42
0.0
 97
        1
330
BEB
 92
        7
 72
     1
 73
     1
 93
       12
 10
-33.36098015940343
 20
55.92380871629666
 42
0.4142135623731547
 10
-32.56098015940324
 20
55.12380871629648
 42
0.0
 10
-29.58465321349877
 20
55.12380871629648
 42
0.0
 10
-29.58465321349832
 20
58.10010174665058
 42
0.4142135623731964
 10
-30.3846532134985
 20
58.90010174665076
 42
0.0
 10
-33.07296930642724
 20
58.90010174665076
 42
0.0
 10
-33.07296930642724
 20
58.50010174665067
 42
0.0
 10
-30.38468712904887
 20
58.5001017466509
 42
-0.4142135623732564
 10
-29.98468712904878
 20
58.10010174665103
 42
0.0
 10
-29.98468712904923
 20
57.42799728675596
 42
0.0
 10
-32.56098015940324
 20
57.42799728675596
 42
0.4142135623731705
 10
-33.36098015940343
 20
56.627997286756
 42
0.0
 97
        1
330
BEA
 92
       22
 72
     1
 73
     1
 93
        6
 10
-32.97692046803468
 20
56.62796337120562
 42
-0.4142135623731576
 10
-32.57692046803459
 20
57.02796337120571
 42
0.0
 10
-29.98468712904878
 20
57.02796337120571
 42
0.0
 10
-29.98468712904878
 20
55.507868407665
 42
0.0
 10
-32.57692046803459
 20
55.507868407665
 42
-0.4142135623731731
 10
-32.97692046803468
 20
55.90786840766487
 42
0.0
 97
        1
330
C11
 92
        7
 72
     1
 73
     1
 93
       10
 10
-28.57661522808212
 20
58.5001017466509
 42
0.0
 10
-25.98444972019661
 20
58.5001017466509
 42
-0.4142135623730067
 10
-25.58444972019652
 20
58.10010174665058
 42
0.0
 10
-25.58444972019606
 20
55.12380871629648
 42
0.0
 10
-25.20042394437906
 20
55.12380871629648
 42
0.0
 10
-25.2004239443786
 20
58.1001017466508
 42
0.4142135623731134
 10
-26.00042394437833
 20
58.90010174665076
 42
0.0
 10
-28.97664914363259
 20
58.90010174665076
 42
0.0
 10
-28.97664914363259
 20
55.12380871629648
 42
0.0
 10
-28.57661522808212
 20
55.12380871629648
 42
0.0
 97
        1
330
BE9
 92
        7
 72
     0
 73
     1
 93
        4
 10
-24.57637781922995
 20
55.12380871629648
 10
-24.19231812786165
 20
55.12380871629648
 10
-24.19231812786165
 20
58.90010174665076
 10
-24.57637781922995
 20
58.90010174665076
 97
        1
330
BE8
 92
        7
 72
     0
 73
     1
 93
        4
 10
-24.19231812786165
 20
59.87619128370352
 10
-24.5763778192304
 20
59.87619128370352
 10
-24.5763778192304
 20
59.28412752246913
 10
-24.1923181278612
 20
59.28412752246913
 97
        1
330
C12
 92
        7
 72
     1
 73
     1
 93
       10
 10
-23.18424622689509
 20
58.5001017466509
 42
0.0
 10
-20.59204680345965
 20
58.5001017466509
 42
-0.4142135623730898
 10
-20.19204680345956
 20
58.1001017466508
 42
0.0
 10
-20.19204680345956
 20
55.12380871629648
 42
0.0
 10
-19.79201288790909
 20
55.12380871629648
 42
0.0
 10
-19.79201288790909
 20
58.1001017466508
 42
0.4142135623731547
 10
-20.59201288790928
 20
58.90010174665076
 42
0.0
 10
-23.56830591826338
 20
58.90010174665076
 42
0.0
 10
-23.56830591826338
 20
55.12380871629648
 42
0.0
 10
-23.18424622689463
 20
55.12380871629648
 42
0.0
 97
        1
330
BE7
 92
        7
 72
     1
 73
     1
 93
        8
 10
-19.1999120763262
 20
55.92680650071542
 42
0.4153115297271299
 10
-18.39991769304061
 20
55.12380871629648
 42
0.0
 10
-15.4236900118708
 20
55.12380871629648
 42
0.0
 10
-15.4236900118708
 20
59.87619128370352
 42
0.0
 10
-15.80771578768872
 20
59.87619128370352
 42
0.0
 10
-15.80771578768872
 20
58.90010174665076
 42
0.0
 10
-18.39176256411201
 20
58.90010174665076
 42
0.4131164467977965
 10
-19.19175694739761
 20
58.1030995310698
 42
0.0
 97
        1
330
BE6
 92
       22
 72
     1
 73
     1
 93
        6
 10
-18.79994912667462
 20
58.1001017466508
 42
-0.4142135623731575
 10
-18.39994912667453
 20
58.5001017466509
 42
0.0
 10
-15.80771578768872
 20
58.50010174665067
 42
0.0
 10
-15.80771578768827
 20
55.507868407665
 42
0.0
 10
-18.39994912667453
 20
55.507868407665
 42
-0.4142135623731731
 10
-18.79994912667462
 20
55.90786840766487
 42
0.0
 97
        1
330
BE5
 92
        7
 72
     1
 73
     1
 93
       12
 10
-14.79964388672215
 20
55.92380871629621
 42
0.4142135623729885
 10
-13.99964388672242
 20
55.12380871629648
 42
0.0
 10
-11.8233508563676
 20
55.12380871629648
 42
0.4142135623731289
 10
-11.02335085636741
 20
55.92380871629666
 42
0.0
 10
-11.02335085636741
 20
58.90010174665076
 42
0.0
 10
-11.42338477191788
 20
58.90010174665076
 42
0.0
 10
-11.42338477191788
 20
55.91567577726095
 42
-0.4131711701795319
 10
-11.82196067063523
 20
55.51567831234956
 42
0.0
 10
-14.01419400962095
 20
55.50787335710947
 42
-0.4152567234626918
 10
-14.41561811090378
 20
55.90787082202087
 42
0.0
 10
-14.41561811090378
 20
58.90010174665076
 42
0.0
 10
-14.7996438867226
 20
58.90010174665076
 42
0.0
 97
        1
330
BE4
 92
        7
 72
     1
 73
     1
 93
       20
 10
-7.423079531965413
 20
57.02796337120571
 42
-0.414213562373168
 10
-7.023079531965322
 20
56.62796337120562
 42
0.0
 10
-7.023079531965322
 20
55.90786840766487
 42
-0.4142135623731575
 10
-7.423079531965413
 20
55.507868407665
 42
0.0
 10
-10.41534678650168
 20
55.507868407665
 42
0.0
 10
-10.41534678650168
 20
55.12380871629648
 42
0.0
 10
-7.445787917283723
 20
55.12380871629648
 42
0.4114777732065809
 10
-6.645822882998345
 20
55.91632914939783
 42
0.0
 10
-6.639238813324936
 20
56.62051771985716
 42
0.4169546541682913
 10
-7.439203847610315
 20
57.42799728675596
 42
0.0
 10
-9.615312870951584
 20
57.42799728675596
 42
-0.4142135623729911
 10
-10.01531287095122
 20
57.82799728675581
 42
0.0
 10
-10.01531287095122
 20
58.10010174665103
 42
-0.414213562372991
 10
-9.615312870951584
 20
58.5001017466509
 42
0.0
 10
-6.92703069357276
 20
58.50010174665067
 42
0.0
 10
-6.927030693572305
 20
58.90010174665076
 42
0.0
 10
-9.615346786501959
 20
58.90010174665076
 42
0.4142135623730467
 10
-10.41534678650168
 20
58.10010174665103
 42
0.0
 10
-10.41534678650168
 20
57.82796337120544
 42
0.4142135623730301
 10
-9.615346786501959
 20
57.02796337120571
 42
0.0
 97
        1
330
BE3
 92
        7
 72
     1
 73
     1
 93
       12
 10
-5.21497371544865
 20
57.42799728675596
 42
0.4142135623730871
 10
-6.014973715448377
 20
56.627997286756
 42
0.0
 10
-6.014973715448377
 20
55.92380871629621
 42
0.4142135623730715
 10
-5.21497371544865
 20
55.12380871629648
 42
0.0
 10
-2.23871460064447
 20
55.12380871629648
 42
0.0
 10
-2.23871460064447
 20
58.10010174665058
 42
0.414213562373155
 10
-3.038714600644652
 20
58.90010174665076
 42
0.0
 10
-5.726962862471737
 20
58.90010174665076
 42
0.0
 10
-5.726962862472191
 20
58.5001017466509
 42
0.0
 10
-3.038748516194573
 20
58.5001017466509
 42
-0.4142135623730067
 10
-2.638748516194482
 20
58.10010174665058
 42
0.0
 10
-2.638748516194482
 20
57.42799728675596
 42
0.0
 97
        1
330
BE2
 92
       22
 72
     1
 73
     1
 93
        6
 10
-2.638748516194937
 20
57.02796337120571
 42
0.0
 10
-2.638748516194482
 20
55.50786840766477
 42
0.0
 10
-5.21497371544865
 20
55.507868407665
 42
-0.4142135623731731
 10
-5.614973715448741
 20
55.90786840766509
 42
0.0
 10
-5.614973715448741
 20
56.62796337120562
 42
-0.4142135623731576
 10
-5.21497371544865
 20
57.02796337120571
 42
0.0
 97
        1
330
C0D
 75
     0
 76
     1
 47
0.0407044778999864
 98
       13
 10
-34.18710075113677
 20
56.16907953933765
 10
-33.12851374392494
 20
56.49471602641233
 10
-33.12851374392494
 20
56.49471602641233
 10
-28.77202873835904
 20
57.51232930166111
 10
-24.41554807250941
 20
57.91937341678636
 10
-24.41554807250941
 20
59.384734621186
 10
-23.31624584658039
 20
58.3264175319116
 10
-19.04119127844888
 20
57.75655517324913
 10
-19.04119127844888
 20
57.75655517324913
 10
-14.64399105416578
 20
57.43091868617466
 10
-8.048195057457178
 20
57.22739662861204
 10
-4.017427461911665
 20
57.18669281458665
 10
-4.017427461911665
 20
57.18669281458665
  0
TEXT
  5
BED
330
B9E
100
AcDbEntity
  8
leg fin
100
AcDbText
 10
3.391127401597259
 20
2.107634911895729
 30
0.0
 40
1.5
  1
Este desenho é propriedade da Sanindusa, S.A., e não pode ser copiado nem divulgado sem nossa autorização.
 50
90.0
 41
0.8
  7
SANINDUSA
100
AcDbText
  0
LINE
  5
BEE
330
B9E
100
AcDbEntity
  8
3
100
AcDbLine
 10
-90.0
 20
4.0
 30
0.0
 11
-90.0
 21
12.0
 31
0.0
  0
TEXT
  5
BEF
330
B9E
100
AcDbEntity
  8
1
100
AcDbText
 10
-39.0
 20
9.25
 30
0.0
 40
2.0
  1
Substituido por:
 41
0.8
  7
SANINDUSA
 11
-39.0
 21
10.25
 31
0.0
100
AcDbText
 73
     2
  0
POINT
  5
BF0
330
B9E
100
AcDbEntity
  8
SANINDUSA
100
AcDbPoint
 10
0.0
 20
0.0
 30
0.0
  0
TEXT
  5
BF1
330
B9E
100
AcDbEntity
  8
1
100
AcDbText
 10
-89.0
 20
16.74927010445663
 30
0.0
 40
2.0
  1
Normas:
 41
0.8
  7
SANINDUSA
 11
-89.0
 21
17.74927010445663
 31
0.0
100
AcDbText
 73
     2
  0
LINE
  5
BF2
330
B9E
100
AcDbEntity
  8
3
100
AcDbLine
 10
-90.0
 20
12.0
 30
0.0
 11
-90.0
 21
20.0
 31
0.0
  0
LINE
  5
BF3
330
B9E
100
AcDbEntity
  8
3
100
AcDbLine
 10
-110.546019464768
 20
12.0
 30
0.0
 11
-110.546019464768
 21
20.0
 31
0.0
  0
TEXT
  5
BF4
330
B9E
100
AcDbEntity
  8
1
100
AcDbText
 10
-109.6177520618648
 20
17.25
 30
0.0
 40
2.0
  1
Cor:
 41
0.8
  7
SANINDUSA
 11
-109.6177520618648
 21
18.25
 31
0.0
100
AcDbText
 73
     2
  0
LINE
  5
BF5
330
B9E
100
AcDbEntity
  8
leg fin
100
AcDbLine
 10
-91.42857142857156
 20
20.0
 30
0.0
 11
-91.42857142857156
 21
28.5
 31
0.0
  0
LINE
  5
BF6
330
B9E
100
AcDbEntity
  8
leg fin
100
AcDbLine
 10
-104.2857142857142
 20
20.0
 30
0.0
 11
-104.2857142857142
 21
28.5
 31
0.0
  0
LINE
  5
BF7
330
B9E
100
AcDbEntity
  8
leg fin
100
AcDbLine
 10
-117.1428571428573
 20
20.0
 30
0.0
 11
-117.1428571428573
 21
28.5
 31
0.0
  0
POINT
  5
BF8
330
B9E
100
AcDbEntity
  8
SANINDUSA
100
AcDbPoint
 10
-117.1428571428573
 20
28.5
 30
0.0
  0
POINT
  5
BF9
330
B9E
100
AcDbEntity
  8
SANINDUSA
100
AcDbPoint
 10
-104.2857142857142
 20
28.5
 30
0.0
  0
POINT
  5
BFA
330
B9E
100
AcDbEntity
  8
SANINDUSA
100
AcDbPoint
 10
-91.42857142857156
 20
28.5
 30
0.0
  0
TEXT
  5
BFB
330
B9E
100
AcDbEntity
  8
1
100
AcDbText
 10
-116.200160604496
 20
26.43288406845113
 30
0.0
 40
1.5
  1
Nº Seq.:
 41
0.8
  7
SANINDUSA
 11
-116.200160604496
 21
27.18288406845113
 31
0.0
100
AcDbText
 73
     2
  0
TEXT
  5
BFC
330
B9E
100
AcDbEntity
  8
1
100
AcDbText
 10
-103.2106584078738
 20
26.43288406845113
 30
0.0
 40
1.5
  1
Tipo:
 41
0.8
  7
SANINDUSA
 11
-103.2106584078738
 21
27.18288406845113
 31
0.0
100
AcDbText
 73
     2
  0
TEXT
  5
BFD
330
B9E
100
AcDbEntity
  8
1
100
AcDbText
 10
-90.22114672289353
 20
26.43288406845113
 30
0.0
 40
1.5
  1
Prod.:
 41
0.8
  7
SANINDUSA
 11
-90.22114672289353
 21
27.18288406845113
 31
0.0
100
AcDbText
 73
     2
  0
TEXT
  5
BFE
330
B9E
100
AcDbEntity
  8
1
100
AcDbText
 10
-64.77320576346574
 20
26.43288406845113
 30
0.0
 40
1.5
  1
Rev.:
 41
0.8
  7
SANINDUSA
 11
-64.77320576346574
 21
27.18288406845113
 31
0.0
100
AcDbText
 73
     2
  0
LINE
  5
BFF
330
B9E
100
AcDbEntity
  8
leg fin
100
AcDbLine
 10
-52.85714285714266
 20
20.0
 30
0.0
 11
-52.85714285714266
 21
28.5
 31
0.0
  0
LINE
  5
C00
330
B9E
100
AcDbEntity
  8
leg fin
100
AcDbLine
 10
-65.71428571428578
 20
20.0
 30
0.0
 11
-65.71428571428578
 21
28.5
 31
0.0
  0
LINE
  5
C01
330
B9E
100
AcDbEntity
  8
leg fin
100
AcDbLine
 10
-78.57142857142844
 20
20.0
 30
0.0
 11
-78.57142857142844
 21
28.5
 31
0.0
  0
POINT
  5
C02
330
B9E
100
AcDbEntity
  8
SANINDUSA
100
AcDbPoint
 10
-78.57142857142844
 20
28.5
 30
0.0
  0
POINT
  5
C03
330
B9E
100
AcDbEntity
  8
SANINDUSA
100
AcDbPoint
 10
-65.71428571428578
 20
28.5
 30
0.0
  0
POINT
  5
C04
330
B9E
100
AcDbEntity
  8
SANINDUSA
100
AcDbPoint
 10
-52.85714285714266
 20
28.5
 30
0.0
  0
TEXT
  5
C05
330
B9E
100
AcDbEntity
  8
1
100
AcDbText
 10
-77.61097961686573
 20
26.43288406845113
 30
0.0
 40
1.5
  1
Peça:
 41
0.8
  7
SANINDUSA
 11
-77.61097961686573
 21
27.18288406845113
 31
0.0
100
AcDbText
 73
     2
  0
TEXT
  5
C06
330
B9E
100
AcDbEntity
  8
1
100
AcDbText
 10
-52.06538060077036
 20
26.43288406845113
 30
0.0
 40
1.5
  1
Alt.:
 41
0.8
  7
SANINDUSA
 11
-52.06538060077036
 21
27.18288406845113
 31
0.0
100
AcDbText
 73
     2
  0
LINE
  5
C07
330
B9E
100
AcDbEntity
  8
3
100
AcDbLine
 10
0.0
 20
12.0
 30
0.0
 11
-40.0
 21
12.0
 31
0.0
  0
LINE
  5
C08
330
B9E
100
AcDbEntity
  8
3
100
AcDbLine
 10
-40.0
 20
32.5
 30
0.0
 11
0.0
 21
32.5
 31
0.0
  0
TEXT
  5
C09
330
B9E
100
AcDbEntity
  8
1
100
AcDbText
 10
-19.0
 20
29.75
 30
0.0
 40
2.0
  1
Folha:
 41
0.8
  7
SANINDUSA
 11
-19.0
 21
30.75
 31
0.0
100
AcDbText
 73
     2
  0
LINE
  5
C0A
330
B9E
100
AcDbEntity
  8
3
100
AcDbLine
 10
-20.0
 20
32.5
 30
0.0
 11
-20.0
 21
20.0
 31
0.0
  0
TEXT
  5
C0B
330
B9E
100
AcDbEntity
  8
1
100
AcDbText
 10
-39.0
 20
29.75
 30
0.0
 40
2.0
  1
Escala:
 41
0.8
  7
SANINDUSA
 11
-39.0
 21
30.75
 31
0.0
100
AcDbText
 73
     2
  0
TEXT
  5
C0C
330
B9E
100
AcDbEntity
  8
1
100
AcDbText
 10
-39.0
 20
17.25
 30
0.0
 40
2.0
  1
Substitui:
 41
0.8
  7
SANINDUSA
 11
-39.0
 21
18.25
 31
0.0
100
AcDbText
 73
     2
  0
LWPOLYLINE
  5
C0D
102
{ACAD_REACTORS
330
BEC
102
}
330
B9E
100
AcDbEntity
  8
9
100
AcDbPolyline
 90
        6
 70
     1
 43
0.0
 10
-2.638748516194482
 20
57.02796337120571
 10
-2.638748516194482
 20
55.50786840766477
 10
-5.21497371544865
 20
55.507868407665
 42
-0.4142135623730898
 10
-5.614973715448741
 20
55.90786840766487
 10
-5.614973715448741
 20
56.62796337120562
 42
-0.4142135623731576
 10
-5.21497371544865
 20
57.02796337120571
  0
LINE
  5
C0E
330
B9E
100
AcDbEntity
  8
3
100
AcDbLine
 10
-40.0
 20
50.0
 30
0.0
 11
0.0
 21
50.0
 31
0.0
  0
ATTDEF
  5
C0F
330
B9E
100
AcDbEntity
  8
1
100
AcDbText
 10
-31.30691739422431
 20
40.25
 30
0.0
 40
2.0
  1
XXXXXXXXXXXXXXX
 41
0.8
  7
SANINDUSA
 72
     4
 11
-20.0
 21
41.25
 31
0.0
100
AcDbAttributeDefinition
  3
Observações:
  2
OBS
 70
     0
  0
TEXT
  5
C10
330
B9E
100
AcDbEntity
  8
1
100
AcDbText
 10
-39.0
 20
47.25
 30
0.0
 40
2.0
  1
Observações:
 41
0.8
  7
SANINDUSA
 11
-39.0
 21
48.25
 31
0.0
100
AcDbText
 73
     2
  0
LWPOLYLINE
  5
C11
102
{ACAD_REACTORS
330
BEC
102
}
330
B9E
100
AcDbEntity
  8
9
100
AcDbPolyline
 90
        6
 70
     1
 43
0.0
 10
-29.98468712904878
 20
57.02796337120571
 10
-29.98468712904878
 20
55.507868407665
 10
-32.57692046803459
 20
55.507868407665
 42
-0.4142135623731731
 10
-32.97692046803468
 20
55.90786840766487
 10
-32.97692046803468
 20
56.62796337120562
 42
-0.4142135623731576
 10
-32.57692046803459
 20
57.02796337120571
  0
LWPOLYLINE
  5
C12
102
{ACAD_REACTORS
330
BEC
102
}
330
B9E
100
AcDbEntity
  8
9
100
AcDbPolyline
 90
        4
 70
     1
 43
0.0
 10
-24.19231812786165
 20
59.87619128370352
 10
-24.57637781922995
 20
59.87619128370352
 10
-24.57637781922995
 20
59.28412752246913
 10
-24.19231812786165
 20
59.28412752246913
  0
ENDBLK
  5
C14
330
B9E
100
AcDbEntity
  8
0
100
AcDbBlockEnd
  0
BLOCK
  5
14E8
330
14E7
100
AcDbEntity
  8
0
100
AcDbBlockBegin
  2
*D33
 70
     1
 10
0.0
 20
0.0
 30
0.0
  3
*D33
  1

  0
LINE
  5
14E9
330
14E7
100
AcDbEntity
  8
cotas
100
AcDbLine
 10
3791.888011422174
 20
2691.199129601943
 30
0.0
 11
3791.888011422174
 21
2733.30807829918
 31
0.0
  0
LINE
  5
14EA
330
14E7
100
AcDbEntity
  8
cotas
100
AcDbLine
 10
4791.888487036603
 20
2691.199129601944
 30
0.0
 11
4791.888487036603
 21
2733.30807829918
 31
0.0
  0
LINE
  5
14EB
330
14E7
100
AcDbEntity
  8
cotas
100
AcDbLine
 10
3801.888011422174
 20
2728.308078299179
 30
0.0
 11
4781.888487036602
 21
2728.308078299179
 31
0.0
  0
SOLID
  5
14EC
330
14E7
100
AcDbEntity
  8
cotas
100
AcDbTrace
 10
3801.888011422174
 20
2729.974744965846
 30
0.0
 11
3801.888011422174
 21
2726.641411632513
 31
0.0
 12
3791.888011422174
 22
2728.308078299179
 32
0.0
 13
3791.888011422174
 23
2728.308078299179
 33
0.0
  0
SOLID
  5
14ED
330
14E7
100
AcDbEntity
  8
cotas
100
AcDbTrace
 10
4781.888487036602
 20
2729.974744965846
 30
0.0
 11
4781.888487036602
 21
2726.641411632513
 31
0.0
 12
4791.888487036603
 22
2728.308078299179
 32
0.0
 13
4791.888487036603
 23
2728.308078299179
 33
0.0
  0
MTEXT
  5
14EE
330
14E7
100
AcDbEntity
  8
cotas
100
AcDbMText
 10
4289.991033395651
 20
2738.512913759219
 30
0.0
 40
10.0
 41
0.0
 71
     5
 72
     1
  1
1000
  7
SANINDUSA
 73
     1
 44
1.0
1001
ACAD
1000
MTEXTBEGIN
1070
    73
1070
     1
1070
    44
1040
1.0
1070
    74
1070
     0
1000
MTEXTEND
  0
POINT
  5
14EF
330
14E7
100
AcDbEntity
  8
Defpoints
 62
     0
100
AcDbPoint
 10
3791.888011422174
 20
2686.199129601944
 30
0.0
  0
POINT
  5
14F0
330
14E7
100
AcDbEntity
  8
Defpoints
 62
     0
100
AcDbPoint
 10
4791.888487036603
 20
2686.199129601944
 30
0.0
  0
POINT
  5
14F1
330
14E7
100
AcDbEntity
  8
Defpoints
 62
     0
100
AcDbPoint
 10
4791.888487036603
 20
2728.308078299179
 30
0.0
  0
ENDBLK
  5
14F2
330
14E7
100
AcDbEntity
  8
0
100
AcDbBlockEnd
  0
BLOCK
  5
14F4
330
14F3
100
AcDbEntity
  8
0
100
AcDbBlockBegin
  2
*D34
 70
     1
 10
0.0
 20
0.0
 30
0.0
  3
*D34
  1

  0
LINE
  5
14F5
330
14F3
100
AcDbEntity
  8
cotas
100
AcDbLine
 10
4796.888487036603
 20
2686.199129601944
 30
0.0
 11
4836.500278493925
 21
2686.199129601944
 31
0.0
  0
LINE
  5
14F6
330
14F3
100
AcDbEntity
  8
cotas
100
AcDbLine
 10
4797.499176501875
 20
2651.21275356811
 30
0.0
 11
4836.500278493925
 21
2651.21275356811
 31
0.0
  0
LINE
  5
14F7
330
14F3
100
AcDbEntity
  8
cotas
100
AcDbLine
 10
4831.500278493925
 20
2676.199129601944
 30
0.0
 11
4831.500278493925
 21
2661.21275356811
 31
0.0
  0
SOLID
  5
14F8
330
14F3
100
AcDbEntity
  8
cotas
100
AcDbTrace
 10
4829.833611827258
 20
2676.199129601944
 30
0.0
 11
4833.166945160592
 21
2676.199129601944
 31
0.0
 12
4831.500278493925
 22
2686.199129601944
 32
0.0
 13
4831.500278493925
 23
2686.199129601944
 33
0.0
  0
SOLID
  5
14F9
330
14F3
100
AcDbEntity
  8
cotas
100
AcDbTrace
 10
4829.833611827258
 20
2661.21275356811
 30
0.0
 11
4833.166945160592
 21
2661.21275356811
 31
0.0
 12
4831.500278493925
 22
2651.21275356811
 32
0.0
 13
4831.500278493925
 23
2651.21275356811
 33
0.0
  0
MTEXT
  5
14FA
330
14F3
100
AcDbEntity
  8
cotas
100
AcDbMText
 10
4821.292085075523
 20
2668.705941585028
 30
0.0
 40
10.0
 41
0.0
 71
     5
 72
     1
  1
35
  7
SANINDUSA
 11
0.0000000000000001
 21
1.0
 31
0.0
 73
     1
 44
1.0
1001
ACAD
1000
MTEXTBEGIN
1070
    73
1070
     1
1070
    44
1040
1.0
1070
    74
1070
     0
1000
MTEXTEND
  0
POINT
  5
14FB
330
14F3
100
AcDbEntity
  8
Defpoints
 62
     0
100
AcDbPoint
 10
4791.888487036603
 20
2686.199129601944
 30
0.0
  0
POINT
  5
14FC
330
14F3
100
AcDbEntity
  8
Defpoints
 62
     0
100
AcDbPoint
 10
4792.499176501876
 20
2651.21275356811
 30
0.0
  0
POINT
  5
14FD
330
14F3
100
AcDbEntity
  8
Defpoints
 62
     0
100
AcDbPoint
 10
4831.500278493925
 20
2651.21275356811
 30
0.0
  0
ENDBLK
  5
14FE
330
14F3
100
AcDbEntity
  8
0
100
AcDbBlockEnd
  0
BLOCK
  5
1500
330
14FF
100
AcDbEntity
  8
0
100
AcDbBlockBegin
  2
*D35
 70
     1
 10
0.0
 20
0.0
 30
0.0
  3
*D35
  1

  0
LINE
  5
1501
330
14FF
100
AcDbEntity
  8
cotas
100
AcDbLine
 10
3580.64584132982
 20
1728.244966333241
 30
0.0
 11
3537.592934494992
 21
1728.244966333241
 31
0.0
  0
LINE
  5
1502
330
14FF
100
AcDbEntity
  8
cotas
100
AcDbLine
 10
3580.64584132982
 20
2528.245441947668
 30
0.0
 11
3537.592934494992
 21
2528.245441947668
 31
0.0
  0
LINE
  5
1503
330
14FF
100
AcDbEntity
  8
cotas
100
AcDbLine
 10
3542.592934494992
 20
1738.244966333241
 30
0.0
 11
3542.592934494992
 21
2518.245441947668
 31
0.0
  0
SOLID
  5
1504
330
14FF
100
AcDbEntity
  8
cotas
100
AcDbTrace
 10
3540.926267828325
 20
1738.244966333241
 30
0.0
 11
3544.259601161658
 21
1738.244966333241
 31
0.0
 12
3542.592934494992
 22
1728.244966333241
 32
0.0
 13
3542.592934494992
 23
1728.244966333241
 33
0.0
  0
SOLID
  5
1505
330
14FF
100
AcDbEntity
  8
cotas
100
AcDbTrace
 10
3540.926267828325
 20
2518.245441947668
 30
0.0
 11
3544.259601161658
 21
2518.245441947668
 31
0.0
 12
3542.592934494992
 22
2528.245441947668
 32
0.0
 13
3542.592934494992
 23
2528.245441947668
 33
0.0
  0
MTEXT
  5
1506
330
14FF
100
AcDbEntity
  8
cotas
100
AcDbMText
 10
3532.364593326422
 20
2128.245204140455
 30
0.0
 40
10.0
 41
0.0
 71
     5
 72
     1
  1
800
  7
SANINDUSA
 11
0.0000000000000001
 21
1.0
 31
0.0
 73
     1
 44
1.0
1001
ACAD
1000
MTEXTBEGIN
1070
    73
1070
     1
1070
    44
1040
1.0
1070
    74
1070
     0
1000
MTEXTEND
  0
POINT
  5
1507
330
14FF
100
AcDbEntity
  8
Defpoints
 62
     0
100
AcDbPoint
 10
3585.64584132982
 20
1728.244966333241
 30
0.0
  0
POINT
  5
1508
330
14FF
100
AcDbEntity
  8
Defpoints
 62
     0
100
AcDbPoint
 10
3585.64584132982
 20
2528.245441947668
 30
0.0
  0
POINT
  5
1509
330
14FF
100
AcDbEntity
  8
Defpoints
 62
     0
100
AcDbPoint
 10
3542.592934494992
 20
2528.245441947668
 30
0.0
  0
ENDBLK
  5
150A
330
14FF
100
AcDbEntity
  8
0
100
AcDbBlockEnd
  0
BLOCK
  5
150C
330
150B
100
AcDbEntity
  8
0
100
AcDbBlockBegin
  2
*D36
 70
     1
 10
0.0
 20
0.0
 30
0.0
  3
*D36
  1

  0
LINE
  5
150D
330
150B
100
AcDbEntity
  8
cotas
100
AcDbLine
 10
4840.157456132168
 20
2498.854994359072
 30
0.0
 11
4732.827694632332
 21
2461.264202047984
 31
0.0
  0
MTEXT
  5
150E
330
150B
100
AcDbEntity
  8
cotas
100
AcDbMText
 10
4824.441363739079
 20
2503.946237620378
 30
0.0
 40
10.0
 41
0.0
 71
     5
 72
     1
  1
R4
  7
SANINDUSA
 11
0.9437887600126417
 21
0.3305492043157873
 31
0.0
 73
     1
 44
1.0
1001
ACAD
1000
MTEXTBEGIN
1070
    73
1070
     1
1070
    44
1040
1.0
1070
    74
1070
     0
1000
MTEXTEND
  0
LINE
  5
150F
330
150B
100
AcDbEntity
  8
cotas
100
AcDbLine
 10
4719.879251215089
 20
2456.729185474318
 30
0.0
 11
4723.389807032205
 21
2457.958710004827
 31
0.0
  0
SOLID
  5
1510
330
150B
100
AcDbEntity
  8
cotas
100
AcDbTrace
 10
4732.276779291805
 20
2462.837183314672
 30
0.0
 11
4733.378609972858
 21
2459.691220781297
 31
0.0
 12
4723.389807032205
 22
2457.958710004827
 32
0.0
 13
4723.389807032205
 23
2457.958710004827
 33
0.0
  0
POINT
  5
1511
330
150B
100
AcDbEntity
  8
Defpoints
 62
     0
100
AcDbPoint
 10
4723.389807032205
 20
2457.958710004827
 30
0.0
  0
POINT
  5
1512
330
150B
100
AcDbEntity
  8
Defpoints
 62
     0
100
AcDbPoint
 10
4719.879251215089
 20
2456.729185474318
 30
0.0
  0
ENDBLK
  5
1513
330
150B
100
AcDbEntity
  8
0
100
AcDbBlockEnd
  0
BLOCK
  5
1515
330
1514
100
AcDbEntity
  8
0
100
AcDbBlockBegin
  2
*D37
 70
     1
 10
0.0
 20
0.0
 30
0.0
  3
*D37
  1

  0
LINE
  5
1516
330
1514
100
AcDbEntity
  8
cotas
100
AcDbLine
 10
4853.543397111476
 20
2328.85613141838
 30
0.0
 11
4856.03249240576
 21
2328.85613141838
 31
0.0
  0
LINE
  5
1517
330
1514
100
AcDbEntity
  8
cotas
100
AcDbLine
 10
4851.03249240576
 20
2138.856131418379
 30
0.0
 11
4851.03249240576
 21
2318.856131418379
 31
0.0
  0
SOLID
  5
1518
330
1514
100
AcDbEntity
  8
cotas
100
AcDbTrace
 10
4849.365825739093
 20
2138.856131418379
 30
0.0
 11
4852.699159072427
 21
2138.856131418379
 31
0.0
 12
4851.03249240576
 22
2128.856131418379
 32
0.0
 13
4851.03249240576
 23
2128.856131418379
 33
0.0
  0
SOLID
  5
1519
330
1514
100
AcDbEntity
  8
cotas
100
AcDbTrace
 10
4849.365825739093
 20
2318.856131418379
 30
0.0
 11
4852.699159072427
 21
2318.856131418379
 31
0.0
 12
4851.03249240576
 22
2328.85613141838
 32
0.0
 13
4851.03249240576
 23
2328.85613141838
 33
0.0
  0
MTEXT
  5
151A
330
1514
100
AcDbEntity
  8
cotas
100
AcDbMText
 10
4840.824298987357
 20
2228.85613141838
 30
0.0
 40
10.0
 41
0.0
 71
     5
 72
     1
  1
200
  7
SANINDUSA
 11
0.0000000000000001
 21
1.0
 31
0.0
 73
     1
 44
1.0
1001
ACAD
1000
MTEXTBEGIN
1070
    73
1070
     1
1070
    44
1040
1.0
1070
    74
1070
     0
1000
MTEXTEND
  0
POINT
  5
151B
330
1514
100
AcDbEntity
  8
Defpoints
 62
     0
100
AcDbPoint
 10
4851.03249240576
 20
2128.856131418379
 30
0.0
  0
POINT
  5
151C
330
1514
100
AcDbEntity
  8
Defpoints
 62
     0
100
AcDbPoint
 10
4848.543397111477
 20
2328.85613141838
 30
0.0
  0
POINT
  5
151D
330
1514
100
AcDbEntity
  8
Defpoints
 62
     0
100
AcDbPoint
 10
4851.03249240576
 20
2328.85613141838
 30
0.0
  0
ENDBLK
  5
151E
330
1514
100
AcDbEntity
  8
0
100
AcDbBlockEnd
  0
BLOCK
  5
1520
330
151F
100
AcDbEntity
  8
0
100
AcDbBlockBegin
  2
*D38
 70
     1
 10
0.0
 20
0.0
 30
0.0
  3
*D38
  1

  0
LINE
  5
1521
330
151F
100
AcDbEntity
  8
cotas
100
AcDbLine
 10
4793.499857268859
 20
2528.856131423816
 30
0.0
 11
4856.03249240576
 21
2528.856131423816
 31
0.0
  0
LINE
  5
1522
330
151F
100
AcDbEntity
  8
cotas
100
AcDbLine
 10
4851.03249240576
 20
2338.85613141838
 30
0.0
 11
4851.03249240576
 21
2518.856131423816
 31
0.0
  0
SOLID
  5
1523
330
151F
100
AcDbEntity
  8
cotas
100
AcDbTrace
 10
4849.365825739093
 20
2338.85613141838
 30
0.0
 11
4852.699159072427
 21
2338.85613141838
 31
0.0
 12
4851.03249240576
 22
2328.85613141838
 32
0.0
 13
4851.03249240576
 23
2328.85613141838
 33
0.0
  0
SOLID
  5
1524
330
151F
100
AcDbEntity
  8
cotas
100
AcDbTrace
 10
4849.365825739093
 20
2518.856131423816
 30
0.0
 11
4852.699159072427
 21
2518.856131423816
 31
0.0
 12
4851.03249240576
 22
2528.856131423816
 32
0.0
 13
4851.03249240576
 23
2528.856131423816
 33
0.0
  0
MTEXT
  5
1525
330
151F
100
AcDbEntity
  8
cotas
100
AcDbMText
 10
4840.824298987357
 20
2428.856131421099
 30
0.0
 40
10.0
 41
0.0
 71
     5
 72
     1
  1
200
  7
SANINDUSA
 11
0.0000000000000001
 21
1.0
 31
0.0
 73
     1
 44
1.0
1001
ACAD
1000
MTEXTBEGIN
1070
    73
1070
     1
1070
    44
1040
1.0
1070
    74
1070
     0
1000
MTEXTEND
  0
POINT
  5
1526
330
151F
100
AcDbEntity
  8
Defpoints
 62
     0
100
AcDbPoint
 10
4851.03249240576
 20
2328.85613141838
 30
0.0
  0
POINT
  5
1527
330
151F
100
AcDbEntity
  8
Defpoints
 62
     0
100
AcDbPoint
 10
4788.499857268859
 20
2528.856131423816
 30
0.0
  0
POINT
  5
1528
330
151F
100
AcDbEntity
  8
Defpoints
 62
     0
100
AcDbPoint
 10
4851.03249240576
 20
2528.856131423816
 30
0.0
  0
ENDBLK
  5
1529
330
151F
100
AcDbEntity
  8
0
100
AcDbBlockEnd
  0
BLOCK
  5
152B
330
152A
100
AcDbEntity
  8
0
100
AcDbBlockBegin
  2
*D39
 70
     1
 10
0.0
 20
0.0
 30
0.0
  3
*D39
  1

  0
LINE
  5
152C
330
152A
100
AcDbEntity
  8
cotas
100
AcDbLine
 10
5303.407577395137
 20
1844.848832633918
 30
0.0
 11
5219.841536753997
 21
1823.830695235798
 31
0.0
  0
MTEXT
  5
152D
330
152A
100
AcDbEntity
  8
cotas
100
AcDbMText
 10
5280.093833946274
 20
1849.421170744551
 30
0.0
 40
10.0
 41
0.0
 71
     5
 72
     1
  1
R151
  7
SANINDUSA
 11
0.9697957431794611
 21
0.2439184628333759
 31
0.0
 73
     1
 44
1.0
1001
ACAD
1000
MTEXTBEGIN
1070
    73
1070
     1
1070
    44
1040
1.0
1070
    74
1070
     0
1000
MTEXTEND
  0
SOLID
  5
152E
330
152A
100
AcDbEntity
  8
cotas
100
AcDbTrace
 10
5219.435005982608
 20
1825.44702147443
 30
0.0
 11
5220.248067525386
 21
1822.214368997165
 31
0.0
 12
5210.143579322203
 22
1821.391510607464
 32
0.0
 13
5210.143579322203
 23
1821.391510607464
 33
0.0
  0
POINT
  5
152F
330
152A
100
AcDbEntity
  8
Defpoints
 62
     0
100
AcDbPoint
 10
5210.143579322203
 20
1821.391510607464
 30
0.0
  0
POINT
  5
1530
330
152A
100
AcDbEntity
  8
Defpoints
 62
     0
100
AcDbPoint
 10
5356.55089578058
 20
1858.215190056714
 30
0.0
  0
ENDBLK
  5
1531
330
152A
100
AcDbEntity
  8
0
100
AcDbBlockEnd
  0
BLOCK
  5
1533
330
1532
100
AcDbEntity
  8
0
100
AcDbBlockBegin
  2
*D40
 70
     1
 10
0.0
 20
0.0
 30
0.0
  3
*D40
  1

  0
LINE
  5
1534
330
1532
100
AcDbEntity
  8
cotas
100
AcDbLine
 10
5145.640676082128
 20
1772.005125099747
 30
0.0
 11
5207.631396091429
 21
1797.113825494254
 31
0.0
  0
MTEXT
  5
1535
330
1532
100
AcDbEntity
  8
cotas
100
AcDbMText
 10
5154.074491586707
 20
1786.210302820867
 30
0.0
 40
10.0
 41
0.0
 71
     5
 72
     1
  1
R4
  7
SANINDUSA
 11
0.9268572523331878
 21
0.3754139499237786
 31
0.0
 73
     1
 44
1.0
1001
ACAD
1000
MTEXTBEGIN
1070
    73
1070
     1
1070
    44
1040
1.0
1070
    74
1070
     0
1000
MTEXTEND
  0
LINE
  5
1536
330
1532
100
AcDbEntity
  8
cotas
100
AcDbLine
 10
5220.60739762417
 20
1802.369620793218
 30
0.0
 11
5216.899968614761
 21
1800.867964993492
 31
0.0
  0
SOLID
  5
1537
330
1532
100
AcDbEntity
  8
cotas
100
AcDbTrace
 10
5207.005706174889
 20
1798.658587581476
 30
0.0
 11
5208.257086007968
 21
1795.569063407032
 31
0.0
 12
5216.899968614761
 22
1800.867964993492
 32
0.0
 13
5216.899968614761
 23
1800.867964993492
 33
0.0
  0
POINT
  5
1538
330
1532
100
AcDbEntity
  8
Defpoints
 62
     0
100
AcDbPoint
 10
5216.899968614761
 20
1800.867964993492
 30
0.0
  0
POINT
  5
1539
330
1532
100
AcDbEntity
  8
Defpoints
 62
     0
100
AcDbPoint
 10
5220.60739762417
 20
1802.369620793218
 30
0.0
  0
ENDBLK
  5
153A
330
1532
100
AcDbEntity
  8
0
100
AcDbBlockEnd
  0
BLOCK
  5
153C
330
153B
100
AcDbEntity
  8
0
100
AcDbBlockBegin
  2
*D41
 70
     1
 10
0.0
 20
0.0
 30
0.0
  3
*D41
  1

  0
LINE
  5
153D
330
153B
100
AcDbEntity
  8
cotas
100
AcDbLine
 10
5265.187400106628
 20
1818.186480225902
 30
0.0
 11
5231.406280822193
 21
1800.917601796149
 31
0.0
  0
MTEXT
  5
153E
330
153B
100
AcDbEntity
  8
cotas
100
AcDbMText
 10
5248.927079049579
 20
1821.105088999888
 30
0.0
 40
10.0
 41
0.0
 71
     5
 72
     1
  1
R4
  7
SANINDUSA
 11
0.890402923757699
 21
0.4551731905151503
 31
0.0
 73
     1
 44
1.0
1001
ACAD
1000
MTEXTBEGIN
1070
    73
1070
     1
1070
    44
1040
1.0
1070
    74
1070
     0
1000
MTEXTEND
  0
LINE
  5
153F
330
153B
100
AcDbEntity
  8
cotas
100
AcDbLine
 10
5218.940639889591
 20
1794.545177128939
 30
0.0
 11
5222.502251584615
 21
1796.365869890997
 31
0.0
  0
SOLID
  5
1540
330
153B
100
AcDbEntity
  8
cotas
100
AcDbTrace
 10
5230.647658838002
 20
1802.401606669078
 30
0.0
 11
5232.164902806386
 21
1799.433596923219
 31
0.0
 12
5222.502251584615
 22
1796.365869890997
 32
0.0
 13
5222.502251584615
 23
1796.365869890997
 33
0.0
  0
POINT
  5
1541
330
153B
100
AcDbEntity
  8
Defpoints
 62
     0
100
AcDbPoint
 10
5222.502251584615
 20
1796.365869890997
 30
0.0
  0
POINT
  5
1542
330
153B
100
AcDbEntity
  8
Defpoints
 62
     0
100
AcDbPoint
 10
5218.940639889591
 20
1794.545177128939
 30
0.0
  0
ENDBLK
  5
1543
330
153B
100
AcDbEntity
  8
0
100
AcDbBlockEnd
  0
BLOCK
  5
1545
330
1544
100
AcDbEntity
  8
0
100
AcDbBlockBegin
  2
*D42
 70
     1
 10
0.0
 20
0.0
 30
0.0
  3
*D42
  1

  0
ARC
  5
1546
330
1544
100
AcDbEntity
  8
cotas
100
AcDbCircle
 10
5224.028709909166
 20
2524.245813365255
 30
0.0
 40
47.23904566849543
100
AcDbArc
 50
244.6966707186613
 51
256.8483353593308
  0
ARC
  5
1547
330
1544
100
AcDbEntity
  8
cotas
100
AcDbCircle
 10
5224.028709909166
 20
2524.245813365255
 30
0.0
 40
47.23904566849543
100
AcDbArc
 50
282.1516646406694
 51
294.3033292813388
  0
ARC
  5
1548
330
1544
100
AcDbEntity
  8
cotas
100
AcDbCircle
 10
5224.028709909166
 20
2524.245813365255
 30
0.0
 40
47.23904566849543
100
AcDbArc
 50
269.0000000000002
 51
270.0
  0
SOLID
  5
1549
330
1544
100
AcDbEntity
  8
cotas
100
AcDbTrace
 10
5213.485739854802
 20
2479.89976468728
 30
0.0
 11
5213.075130206116
 21
2476.591818069284
 31
0.0
 12
5223.20427488445
 22
2477.013962432222
 32
0.0
 13
5223.20427488445
 23
2477.013962432222
 33
0.0
  0
SOLID
  5
154A
330
1544
100
AcDbEntity
  8
cotas
100
AcDbTrace
 10
5234.148944434705
 20
2476.407909678663
 30
0.0
 11
5233.796128952707
 21
2479.722518606844
 31
0.0
 12
5224.028709909164
 22
2477.006767696759
 32
0.0
 13
5224.028709909164
 23
2477.006767696759
 33
0.0
  0
MTEXT
  5
154B
102
{ACAD_XDICTIONARY
360
1948
102
}
330
1544
100
AcDbEntity
  8
cotas
100
AcDbMText
 10
5252.09630016868
 20
2501.868965754268
 30
0.0
 40
10.0
 41
0.0
 71
     5
 72
     1
  1
1,0\U+00B0
  7
SANINDUSA
 11
0.6233823667206578
 21
0.7819171470569956
 31
0.0
 73
     1
 44
1.0
1001
ACAD
1000
MTEXTBEGIN
1070
    73
1070
     1
1070
    44
1040
1.0
1070
    74
1070
     0
1000
MTEXTEND
  0
POINT
  5
154C
330
1544
100
AcDbEntity
  8
Defpoints
 62
     0
100
AcDbPoint
 10
5223.479071056607
 20
2477.00996540206
 30
0.0
  0
POINT
  5
154D
330
1544
100
AcDbEntity
  8
Defpoints
 62
     0
100
AcDbPoint
 10
5224.028709909166
 20
2524.245813365267
 30
0.0
  0
POINT
  5
154E
330
1544
100
AcDbEntity
  8
Defpoints
 62
     0
100
AcDbPoint
 10
5224.028709909166
 20
1740.970798145156
 30
0.0
  0
POINT
  5
154F
330
1544
100
AcDbEntity
  8
Defpoints
 62
     0
100
AcDbPoint
 10
5224.028709909166
 20
2515.519610146633
 30
0.0
  0
POINT
  5
1550
330
1544
100
AcDbEntity
  8
Defpoints
 62
     0
100
AcDbPoint
 10
5222.935312713929
 20
2461.605130002949
 30
0.0
  0
ENDBLK
  5
1551
330
1544
100
AcDbEntity
  8
0
100
AcDbBlockEnd
  0
BLOCK
  5
1553
330
1552
100
AcDbEntity
  8
0
100
AcDbBlockBegin
  2
*D43
 70
     1
 10
0.0
 20
0.0
 30
0.0
  3
*D43
  1

  0
LINE
  5
1554
330
1552
100
AcDbEntity
  8
cotas
100
AcDbLine
 10
5260.818410256148
 20
2553.800755499294
 30
0.0
 11
5231.409847913419
 21
2532.521837978283
 31
0.0
  0
MTEXT
  5
1555
330
1552
100
AcDbEntity
  8
cotas
100
AcDbMText
 10
5244.302911041375
 20
2554.19395232116
 30
0.0
 40
10.0
 41
0.0
 71
     5
 72
     1
  1
R4
  7
SANINDUSA
 11
0.8101637248533698
 21
0.5862036667675436
 31
0.0
 73
     1
 44
1.0
1001
ACAD
1000
MTEXTBEGIN
1070
    73
1070
     1
1070
    44
1040
1.0
1070
    74
1070
     0
1000
MTEXTEND
  0
LINE
  5
1556
330
1552
100
AcDbEntity
  8
cotas
100
AcDbLine
 10
5220.067618734997
 20
2524.315032205892
 30
0.0
 11
5223.308210664885
 21
2526.659801310608
 31
0.0
  0
SOLID
  5
1557
330
1552
100
AcDbEntity
  8
cotas
100
AcDbTrace
 10
5230.432841802141
 20
2533.872110853039
 30
0.0
 11
5232.386854024698
 21
2531.171565103528
 31
0.0
 12
5223.308210664885
 22
2526.659801310608
 32
0.0
 13
5223.308210664885
 23
2526.659801310608
 33
0.0
  0
POINT
  5
1558
330
1552
100
AcDbEntity
  8
Defpoints
 62
     0
100
AcDbPoint
 10
5223.308210664885
 20
2526.659801310608
 30
0.0
  0
POINT
  5
1559
330
1552
100
AcDbEntity
  8
Defpoints
 62
     0
100
AcDbPoint
 10
5220.067618734997
 20
2524.315032205892
 30
0.0
  0
ENDBLK
  5
155A
330
1552
100
AcDbEntity
  8
0
100
AcDbBlockEnd
  0
BLOCK
  5
155C
330
155B
100
AcDbEntity
  8
0
100
AcDbBlockBegin
  2
*D44
 70
     1
 10
0.0
 20
0.0
 30
0.0
  3
*D44
  1

  0
LINE
  5
155D
330
155B
100
AcDbEntity
  8
cotas
100
AcDbLine
 10
4829.741236917448
 20
2565.354354900484
 30
0.0
 11
4798.488458658948
 21
2534.66536117389
 31
0.0
  0
MTEXT
  5
155E
330
155B
100
AcDbEntity
  8
cotas
100
AcDbMText
 10
4813.352288172234
 20
2563.2762122007
 30
0.0
 40
10.0
 41
0.0
 71
     5
 72
     1
  1
R4
  7
SANINDUSA
 11
0.7135132045300816
 21
0.700641782197732
 31
0.0
 73
     1
 44
1.0
1001
ACAD
1000
MTEXTBEGIN
1070
    73
1070
     1
1070
    44
1040
1.0
1070
    74
1070
     0
1000
MTEXTEND
  0
LINE
  5
155F
330
155B
100
AcDbEntity
  8
cotas
100
AcDbLine
 10
4788.499857268856
 20
2524.856949170883
 30
0.0
 11
4791.353326613648
 21
2527.658943351913
 31
0.0
  0
SOLID
  5
1560
330
155B
100
AcDbEntity
  8
cotas
100
AcDbTrace
 10
4797.320722355285
 20
2535.854549848107
 30
0.0
 11
4799.656194962611
 21
2533.476172499673
 31
0.0
 12
4791.353326613648
 22
2527.658943351913
 32
0.0
 13
4791.353326613648
 23
2527.658943351913
 33
0.0
  0
POINT
  5
1561
330
155B
100
AcDbEntity
  8
Defpoints
 62
     0
100
AcDbPoint
 10
4791.353326613648
 20
2527.658943351913
 30
0.0
  0
POINT
  5
1562
330
155B
100
AcDbEntity
  8
Defpoints
 62
     0
100
AcDbPoint
 10
4788.499857268856
 20
2524.856949170883
 30
0.0
  0
ENDBLK
  5
1563
330
155B
100
AcDbEntity
  8
0
100
AcDbBlockEnd
  0
BLOCK
  5
1565
330
1564
100
AcDbEntity
  8
0
100
AcDbBlockBegin
  2
*D45
 70
     1
 10
0.0
 20
0.0
 30
0.0
  3
*D45
  1

  0
LINE
  5
1566
330
1564
100
AcDbEntity
  8
cotas
100
AcDbLine
 10
4796.888487036603
 20
1728.244966333241
 30
0.0
 11
4869.201498705641
 21
1728.244966333241
 31
0.0
  0
LINE
  5
1567
330
1564
100
AcDbEntity
  8
cotas
100
AcDbLine
 10
4394.68739002229
 20
1903.245219164165
 30
0.0
 11
4869.201498705641
 21
1903.245219164165
 31
0.0
  0
LINE
  5
1568
330
1564
100
AcDbEntity
  8
cotas
100
AcDbLine
 10
4864.201498705641
 20
1738.244966333241
 30
0.0
 11
4864.201498705641
 21
1893.245219164165
 31
0.0
  0
SOLID
  5
1569
330
1564
100
AcDbEntity
  8
cotas
100
AcDbTrace
 10
4862.534832038974
 20
1738.244966333241
 30
0.0
 11
4865.868165372308
 21
1738.244966333241
 31
0.0
 12
4864.201498705641
 22
1728.244966333241
 32
0.0
 13
4864.201498705641
 23
1728.244966333241
 33
0.0
  0
SOLID
  5
156A
330
1564
100
AcDbEntity
  8
cotas
100
AcDbTrace
 10
4862.534832038974
 20
1893.245219164165
 30
0.0
 11
4865.868165372308
 21
1893.245219164165
 31
0.0
 12
4864.201498705641
 22
1903.245219164165
 32
0.0
 13
4864.201498705641
 23
1903.245219164165
 33
0.0
  0
MTEXT
  5
156B
330
1564
100
AcDbEntity
  8
cotas
100
AcDbMText
 10
4854.080612204633
 20
1815.745092748704
 30
0.0
 40
10.0
 41
0.0
 71
     5
 72
     1
  1
175
  7
SANINDUSA
 11
0.0000000000000001
 21
1.0
 31
0.0
 73
     1
 44
1.0
1001
ACAD
1000
MTEXTBEGIN
1070
    73
1070
     1
1070
    44
1040
1.0
1070
    74
1070
     0
1000
MTEXTEND
  0
POINT
  5
156C
330
1564
100
AcDbEntity
  8
Defpoints
 62
     0
100
AcDbPoint
 10
4791.888487036603
 20
1728.244966333241
 30
0.0
  0
POINT
  5
156D
330
1564
100
AcDbEntity
  8
Defpoints
 62
     0
100
AcDbPoint
 10
4389.68739002229
 20
1903.245219164165
 30
0.0
  0
POINT
  5
156E
330
1564
100
AcDbEntity
  8
Defpoints
 62
     0
100
AcDbPoint
 10
4864.201498705641
 20
1903.245219164165
 30
0.0
  0
ENDBLK
  5
156F
330
1564
100
AcDbEntity
  8
0
100
AcDbBlockEnd
  0
BLOCK
  5
16E0
330
1570
100
AcDbEntity
  8
0
100
AcDbBlockBegin
  2
A$C2EB118AF
 70
     0
 10
0.0
 20
0.0
 30
0.0
  3
A$C2EB118AF
  1

  0
LINE
  5
1571
330
1570
100
AcDbEntity
  8
leg fin
100
AcDbLine
 10
768.6860379687145
 20
330.0440810367984
 30
0.0
 11
767.6051361368323
 21
330.0363428151411
 31
0.0
  0
ARC
  5
1572
330
1570
100
AcDbEntity
  8
leg fin
100
AcDbCircle
 10
768.6839144277514
 20
255.0472060105619
 30
0.0
 40
74.99683455481701
100
AcDbArc
 50
120.3660739023904
 51
157.5298757719925
  0
ARC
  5
1573
330
1570
100
AcDbEntity
  8
leg fin
100
AcDbCircle
 10
768.6465813456939
 20
255.0519221443139
 30
0.0
 40
74.96053398065341
100
AcDbArc
 50
157.5223005799341
 51
180.0059972882394
  0
ARC
  5
1574
330
1570
100
AcDbEntity
  8
leg fin
100
AcDbCircle
 10
768.6860477756859
 20
255.0440810367993
 30
0.0
 40
75.00000000000001
100
AcDbArc
 50
0.0000307607078342
 51
90.00000749196274
  0
CIRCLE
  5
1575
330
1570
100
AcDbEntity
  8
leg fin
100
AcDbCircle
 10
768.6860477757022
 20
255.0440963744334
 30
0.0
 40
74.99051193421874
  0
CIRCLE
  5
1576
330
1570
100
AcDbEntity
  8
SANINDUSA
100
AcDbCircle
 10
768.6860477757022
 20
255.0440963744334
 30
0.0
 40
60.31250000000003
  0
CIRCLE
  5
1577
330
1570
100
AcDbEntity
  8
SANINDUSA
100
AcDbCircle
 10
768.6860477757022
 20
255.0440963744334
 30
0.0
 40
50.00000000000003
  0
LINE
  5
1578
330
1570
100
AcDbEntity
  8
leg fin
100
AcDbLine
 10
1264.755796808652
 20
1034.050613511473
 30
0.0
 11
1255.960453776445
 21
1034.012239997753
 31
0.0
  0
LINE
  5
1579
330
1570
100
AcDbEntity
  8
leg fin
100
AcDbLine
 10
1265.297584267564
 20
1003.011630778378
 30
0.0
 11
1264.755796808652
 21
1034.050613511472
 31
0.0
  0
LINE
  5
157A
330
1570
100
AcDbEntity
  8
leg fin
100
AcDbLine
 10
272.616298742752
 20
1034.050613511473
 30
0.0
 11
272.0745112838404
 21
1003.011630778378
 31
0.0
  0
LINE
  5
157B
330
1570
100
AcDbEntity
  8
leg fin
100
AcDbLine
 10
281.4116417749583
 20
1034.012239997753
 30
0.0
 11
272.616298742752
 21
1034.050613511473
 31
0.0
  0
LINE
  5
157C
330
1570
100
AcDbEntity
  8
leg fin
100
AcDbLine
 10
1255.960453776445
 20
1034.012239997753
 30
0.0
 11
281.4116417749583
 21
1034.012239997753
 31
0.0
  0
LINE
  5
157D
330
1570
100
AcDbEntity
  8
SANINDUSA
100
AcDbLine
 10
272.0745112838404
 20
1003.011630778378
 30
0.0
 11
1265.297584267564
 21
1003.011630778378
 31
0.0
  0
LINE
  5
157E
330
1570
100
AcDbEntity
  8
SANINDUSA
100
AcDbLine
 10
268.0751205032148
 20
1003.011630778378
 30
0.0
 11
268.6169079621254
 21
1034.050613511472
 31
0.0
  0
LINE
  5
157F
330
1570
100
AcDbEntity
  8
cotas
100
AcDbLine
 10
268.6596262316193
 20
1036.497941531684
 30
0.0
 11
268.6858099684873
 21
1037.998006812212
 31
0.0
  0
ARC
  5
1580
330
1570
100
AcDbEntity
  8
leg fin
100
AcDbCircle
 10
270.6166033524428
 20
976.7404460338962
 30
0.0
 40
57.34504405754617
100
AcDbArc
 50
88.00161738032052
 51
91.99838261967949
  0
LINE
  5
1581
330
1570
100
AcDbEntity
  8
SANINDUSA
100
AcDbLine
 10
272.0745112838404
 20
1003.011630778378
 30
0.0
 11
268.0751205032148
 21
1003.011630778378
 31
0.0
  0
ARC
  5
1582
330
1570
100
AcDbEntity
  8
leg fin
100
AcDbCircle
 10
1266.755492198968
 20
976.740446033828
 30
0.0
 40
57.34504405761412
100
AcDbArc
 50
88.00161738032052
 51
91.99838261967949
  0
LINE
  5
1583
330
1570
100
AcDbEntity
  8
cotas
100
AcDbLine
 10
1268.686285582916
 20
1037.998006812212
 30
0.0
 11
1268.701140407278
 21
1037.146974494525
 31
0.0
  0
LINE
  5
1584
330
1570
100
AcDbEntity
  8
SANINDUSA
100
AcDbLine
 10
1268.755187589278
 20
1034.050613511472
 30
0.0
 11
1269.296975048189
 21
1003.011630778378
 31
0.0
  0
LINE
  5
1585
102
{ACAD_REACTORS
330
15C2
102
}
330
1570
100
AcDbEntity
  8
SANINDUSA
100
AcDbLine
 10
1269.296975048189
 20
1003.011630778378
 30
0.0
 11
1265.297584267564
 21
1003.011630778378
 31
0.0
  0
LINE
  5
1586
330
1570
100
AcDbEntity
  8
SANINDUSA
100
AcDbLine
 10
1255.960453776445
 20
1037.941821152629
 30
0.0
 11
1264.755542996678
 21
1037.980652240172
 31
0.0
  0
LINE
  5
1587
102
{ACAD_REACTORS
330
15BF
330
15C2
102
}
330
1570
100
AcDbEntity
  8
cotas
100
AcDbLine
 10
1267.696075038292
 20
1037.993634946119
 30
0.0
 11
1268.686285582916
 21
1037.998006812212
 31
0.0
  0
LWPOLYLINE
  5
1588
330
1570
100
AcDbEntity
  8
leg fin
100
AcDbPolyline
 90
        9
 70
     0
 43
0.0
 10
1264.72088933759
 20
1037.980499241238
 10
1264.721611765656
 20
1037.911268500151
 10
1264.723633397429
 20
1037.692660319234
 10
1264.726877400727
 20
1037.332982909754
 10
1264.731220487097
 20
1036.845905823752
 10
1264.736497597393
 20
1036.249940442259
 10
1264.742508174862
 20
1035.567736449637
 10
1264.749023787305
 20
1034.825221031565
 10
1264.755796808652
 20
1034.050613511472
  0
LWPOLYLINE
  5
1589
330
1570
100
AcDbEntity
  8
leg fin
100
AcDbPolyline
 90
        9
 70
     0
 43
0.0
 10
272.616298742752
 20
1034.050613511473
 10
272.6230717640992
 20
1034.825221031565
 10
272.6295873765421
 20
1035.567736449638
 10
272.6355979540112
 20
1036.24994044226
 10
272.6408750643077
 20
1036.845905823752
 10
272.6452181506766
 20
1037.332982909754
 10
272.6484621539753
 20
1037.692660319234
 10
272.6504837857488
 20
1037.911268500151
 10
272.651206213814
 20
1037.980499241238
  0
LINE
  5
158A
102
{ACAD_REACTORS
330
15BF
102
}
330
1570
100
AcDbEntity
  8
cotas
100
AcDbLine
 10
268.6858099684873
 20
1037.998006812212
 30
0.0
 11
270.4463745182866
 21
1037.990233765862
 31
0.0
  0
LINE
  5
158B
330
1570
100
AcDbEntity
  8
SANINDUSA
100
AcDbLine
 10
272.6165525548517
 20
1037.980652240171
 30
0.0
 11
281.4116417749583
 21
1037.94182115263
 31
0.0
  0
LINE
  5
158C
330
1570
100
AcDbEntity
  8
SANINDUSA
100
AcDbLine
 10
281.4116417749583
 20
1037.941821152629
 30
0.0
 11
1255.960453776445
 21
1037.941821152629
 31
0.0
  0
ARC
  5
158D
330
1570
100
AcDbEntity
  8
SANINDUSA
100
AcDbCircle
 10
1264.755875835699
 20
1033.980729978463
 30
0.0
 40
3.999922275556835
100
AcDbArc
 50
1.001078259010667
 51
90.50116079886223
  0
ARC
  5
158E
330
1570
100
AcDbEntity
  8
SANINDUSA
100
AcDbCircle
 10
272.6162197157046
 20
1033.980729978463
 30
0.0
 40
3.999922275556433
100
AcDbArc
 50
89.49883920113776
 51
178.9989217410023
  0
LINE
  5
158F
330
1570
100
AcDbEntity
  8
cotas
100
AcDbLine
 10
1384.84125100899
 20
255.0440963744334
 30
0.0
 11
152.5308445424157
 21
255.0440963744334
 31
0.0
  0
LINE
  5
1590
330
1570
100
AcDbEntity
  8
cotas
100
AcDbLine
 10
152.5308445424157
 20
195.0440963744333
 30
0.0
 11
152.5308445424157
 21
255.0440963744334
 31
0.0
  0
LINE
  5
1591
330
1570
100
AcDbEntity
  8
cotas
100
AcDbLine
 10
1384.84125100899
 20
195.0440963744333
 30
0.0
 11
1384.84125100899
 21
255.0440963744334
 31
0.0
  0
LINE
  5
1592
330
1570
100
AcDbEntity
  8
cotas
100
AcDbLine
 10
147.5308345424159
 20
225.0440963744334
 30
-0.0000000000081382
 11
152.5308445424157
 21
255.0440963744334
 31
-0.0000000000081382
  0
LINE
  5
1593
330
1570
100
AcDbEntity
  8
cotas
100
AcDbLine
 10
147.5308345424159
 20
225.0440963744334
 30
-0.0000000000081382
 11
152.5308445424157
 21
225.0440963744334
 31
-0.0000000000081382
  0
LINE
  5
1594
330
1570
100
AcDbEntity
  8
cotas
100
AcDbLine
 10
152.5308445424157
 20
255.0440963744334
 30
-0.0000000000081382
 11
152.5308445424157
 21
225.0440963744334
 31
-0.0000000000081382
  0
TEXT
  5
1595
330
1570
100
AcDbEntity
  8
cotas
100
AcDbText
 10
171.4731504859905
 20
200.7791870037115
 30
-0.0000000000081382
 40
17.5
  1
C
  7
SANINDUSA
100
AcDbText
  0
LINE
  5
1596
330
1570
100
AcDbEntity
  8
cotas
100
AcDbLine
 10
1379.84124100899
 20
225.0440963744334
 30
-0.0000000000081382
 11
1384.84125100899
 21
255.0440963744334
 31
-0.0000000000081382
  0
LINE
  5
1597
330
1570
100
AcDbEntity
  8
cotas
100
AcDbLine
 10
1379.84124100899
 20
225.0440963744334
 30
-0.0000000000081382
 11
1384.84125100899
 21
225.0440963744334
 31
-0.0000000000081382
  0
LINE
  5
1598
330
1570
100
AcDbEntity
  8
cotas
100
AcDbLine
 10
1384.84125100899
 20
255.0440963744334
 30
-0.0000000000081382
 11
1384.84125100899
 21
225.0440963744334
 31
-0.0000000000081382
  0
TEXT
  5
1599
330
1570
100
AcDbEntity
  8
cotas
100
AcDbText
 10
1403.2177110981
 20
198.8524798685964
 30
0.0
 40
17.5
  1
C
  7
SANINDUSA
100
AcDbText
  0
LINE
  5
159A
330
1570
100
AcDbEntity
  8
4
100
AcDbLine
 10
152.5308445424157
 20
255.0440963744334
 30
0.0
 11
117.5308445424157
 21
255.0440963744334
 31
0.0
  0
LINE
  5
159B
330
1570
100
AcDbEntity
  8
4
100
AcDbLine
 10
1384.84125100899
 20
255.0440963744334
 30
0.0
 11
1419.841251008989
 21
255.0440963744334
 31
0.0
  0
LINE
  5
159C
330
1570
100
AcDbEntity
  8
cotas
100
AcDbLine
 10
768.6860477757022
 20
907.194407662318
 30
0.0
 11
768.6860477757022
 21
-0.000002457064511
 31
0.0
  0
MTEXT
  5
159D
330
1570
100
AcDbEntity
  8
cotas
100
AcDbMText
 10
719.3148632955512
 20
938.685041034078
 30
-0.0000000000081382
 40
17.5
 41
0.0
 71
     2
 72
     1
  1
A
  7
SANINDUSA
 73
     1
 44
1.0
1001
ACAD
1000
MTEXTBEGIN
1070
    73
1070
     1
1070
    44
1040
1.0
1070
    74
1070
     0
1000
MTEXTEND
  0
LINE
  5
159E
330
1570
100
AcDbEntity
  8
cotas
100
AcDbLine
 10
768.6860477757022
 20
907.194407662318
 30
-0.0000000000081382
 11
738.6860477757022
 21
907.194407662318
 31
-0.0000000000081382
  0
LINE
  5
159F
330
1570
100
AcDbEntity
  8
cotas
100
AcDbLine
 10
738.6860477757022
 20
907.1944076623186
 30
-0.0000000000081382
 11
738.6860477757022
 21
902.1943976623184
 31
-0.0000000000081382
  0
LINE
  5
15A0
330
1570
100
AcDbEntity
  8
cotas
100
AcDbLine
 10
768.6860477757022
 20
907.194407662318
 30
-0.0000000000081382
 11
738.6860477757022
 21
902.1943976623184
 31
-0.0000000000081382
  0
LINE
  5
15A1
330
1570
100
AcDbEntity
  8
cotas
100
AcDbLine
 10
708.6860477757022
 20
907.194407662318
 30
0.0
 11
768.6860477757022
 21
907.194407662318
 31
0.0
  0
LINE
  5
15A2
330
1570
100
AcDbEntity
  8
4
100
AcDbLine
 10
768.6860477757022
 20
907.194407662318
 30
0.0
 11
768.6860477757022
 21
942.194407662318
 31
0.0
  0
LINE
  5
15A3
330
1570
100
AcDbEntity
  8
cotas
100
AcDbLine
 10
1385.389305862018
 20
480.6550086286474
 30
0.0
 11
153.0788993954443
 21
480.6550086286474
 31
0.0
  0
LINE
  5
15A4
330
1570
100
AcDbEntity
  8
cotas
100
AcDbLine
 10
153.0788993954443
 20
420.6550086286474
 30
0.0
 11
153.0788993954443
 21
480.6550086286474
 31
0.0
  0
LINE
  5
15A5
330
1570
100
AcDbEntity
  8
cotas
100
AcDbLine
 10
1385.389305862018
 20
420.6550086286474
 30
0.0
 11
1385.389305862018
 21
480.6550086286474
 31
0.0
  0
LINE
  5
15A6
330
1570
100
AcDbEntity
  8
cotas
100
AcDbLine
 10
148.0788893954445
 20
450.6550086286474
 30
-0.0000000000081382
 11
153.0788993954443
 21
480.6550086286474
 31
-0.0000000000081382
  0
LINE
  5
15A7
330
1570
100
AcDbEntity
  8
cotas
100
AcDbLine
 10
148.0788893954445
 20
450.6550086286474
 30
-0.0000000000081382
 11
153.0788993954443
 21
450.6550086286474
 31
-0.0000000000081382
  0
LINE
  5
15A8
330
1570
100
AcDbEntity
  8
cotas
100
AcDbLine
 10
153.0788993954443
 20
480.6550086286474
 30
-0.0000000000081382
 11
153.0788993954443
 21
450.6550086286474
 31
-0.0000000000081382
  0
TEXT
  5
15A9
330
1570
100
AcDbEntity
  8
cotas
100
AcDbText
 10
172.0212053390191
 20
426.3900992579256
 30
-0.0000000000081382
 40
17.5
  1
B
  7
SANINDUSA
100
AcDbText
  0
LINE
  5
15AA
330
1570
100
AcDbEntity
  8
cotas
100
AcDbLine
 10
1380.389295862018
 20
450.6550086286474
 30
-0.0000000000081382
 11
1385.389305862018
 21
480.6550086286474
 31
-0.0000000000081382
  0
LINE
  5
15AB
330
1570
100
AcDbEntity
  8
cotas
100
AcDbLine
 10
1380.389295862018
 20
450.6550086286474
 30
-0.0000000000081382
 11
1385.389305862019
 21
450.6550086286474
 31
-0.0000000000081382
  0
LINE
  5
15AC
330
1570
100
AcDbEntity
  8
cotas
100
AcDbLine
 10
1385.389305862018
 20
480.6550086286474
 30
-0.0000000000081382
 11
1385.389305862018
 21
450.6550086286474
 31
-0.0000000000081382
  0
TEXT
  5
15AD
330
1570
100
AcDbEntity
  8
cotas
100
AcDbText
 10
1404.331611805592
 20
426.3900992579256
 30
-0.0000000000081382
 40
17.5
  1
B
  7
SANINDUSA
100
AcDbText
  0
LINE
  5
15AE
330
1570
100
AcDbEntity
  8
4
100
AcDbLine
 10
153.0788993954443
 20
480.6550086286474
 30
0.0
 11
118.0788993954443
 21
480.6550086286474
 31
0.0
  0
LINE
  5
15AF
330
1570
100
AcDbEntity
  8
4
100
AcDbLine
 10
1385.389305862018
 20
480.6550086286474
 30
0.0
 11
1420.389305862018
 21
480.6550086286474
 31
0.0
  0
LINE
  5
15B0
102
{ACAD_REACTORS
330
15CC
102
}
330
1570
100
AcDbEntity
  8
cotas
100
AcDbLine
 10
1384.84125100899
 20
680.6550086286478
 30
0.0
 11
152.5308445424157
 21
680.6550086286478
 31
0.0
  0
LINE
  5
15B1
330
1570
100
AcDbEntity
  8
cotas
100
AcDbLine
 10
152.5308445424157
 20
620.6550086286479
 30
0.0
 11
152.5308445424157
 21
680.6550086286478
 31
0.0
  0
LINE
  5
15B2
330
1570
100
AcDbEntity
  8
cotas
100
AcDbLine
 10
1384.84125100899
 20
620.6550086286479
 30
0.0
 11
1384.84125100899
 21
680.6550086286478
 31
0.0
  0
LINE
  5
15B3
330
1570
100
AcDbEntity
  8
cotas
100
AcDbLine
 10
147.5308345424159
 20
650.6550086286479
 30
-0.0000000000081382
 11
152.5308445424157
 21
680.6550086286478
 31
-0.0000000000081382
  0
LINE
  5
15B4
330
1570
100
AcDbEntity
  8
cotas
100
AcDbLine
 10
147.5308345424159
 20
650.6550086286479
 30
-0.0000000000081382
 11
152.5308445424157
 21
650.6550086286479
 31
-0.0000000000081382
  0
LINE
  5
15B5
330
1570
100
AcDbEntity
  8
cotas
100
AcDbLine
 10
152.5308445424157
 20
680.6550086286478
 30
-0.0000000000081382
 11
152.5308445424157
 21
650.6550086286479
 31
-0.0000000000081382
  0
TEXT
  5
15B6
330
1570
100
AcDbEntity
  8
cotas
100
AcDbText
 10
171.4731504859905
 20
626.3900992579261
 30
-0.0000000000081382
 40
17.5
  1
D
  7
SANINDUSA
100
AcDbText
  0
LINE
  5
15B7
330
1570
100
AcDbEntity
  8
cotas
100
AcDbLine
 10
1379.84124100899
 20
650.6550086286479
 30
-0.0000000000081382
 11
1384.84125100899
 21
680.6550086286478
 31
-0.0000000000081382
  0
LINE
  5
15B8
330
1570
100
AcDbEntity
  8
cotas
100
AcDbLine
 10
1379.84124100899
 20
650.6550086286479
 30
-0.0000000000081382
 11
1384.84125100899
 21
650.6550086286479
 31
-0.0000000000081382
  0
LINE
  5
15B9
330
1570
100
AcDbEntity
  8
cotas
100
AcDbLine
 10
1384.84125100899
 20
680.6550086286478
 30
-0.0000000000081382
 11
1384.84125100899
 21
650.6550086286479
 31
-0.0000000000081382
  0
TEXT
  5
15BA
330
1570
100
AcDbEntity
  8
cotas
100
AcDbText
 10
1403.783556952564
 20
626.3900992579261
 30
-0.0000000000081382
 40
17.5
  1
D
  7
SANINDUSA
100
AcDbText
  0
LINE
  5
15BB
330
1570
100
AcDbEntity
  8
4
100
AcDbLine
 10
152.5308445424157
 20
680.6550086286478
 30
0.0
 11
117.5308445424157
 21
680.6550086286478
 31
0.0
  0
LINE
  5
15BC
330
1570
100
AcDbEntity
  8
4
100
AcDbLine
 10
1384.84125100899
 20
680.6550086286478
 30
0.0
 11
1419.841251008989
 21
680.6550086286478
 31
0.0
  0
DIMENSION
  5
15BD
102
{ACAD_XDICTIONARY
360
15BE
102
}
102
{ACAD_REACTORS
330
15BF
102
}
330
1570
100
AcDbEntity
  8
cotas
100
AcDbDimension
  2
*D33
 10
1268.686285582916
 20
1080.106955509448
 30
0.0
 11
766.7888319419648
 21
1080.106955509448
 31
0.0
 12
-3523.202201453687
 22
-1648.201122789731
 32
0.0
 70
   128
 71
     5
 42
1000.000475614429
  3
SANINDUSA
100
AcDbAlignedDimension
 13
268.6858099684873
 23
1037.998006812212
 33
0.0
 14
1268.686285582916
 24
1037.998006812212
 34
0.0
100
AcDbRotatedDimension
  0
DIMENSION
  5
15C0
102
{ACAD_XDICTIONARY
360
15C1
102
}
102
{ACAD_REACTORS
330
15C2
102
}
330
1570
100
AcDbEntity
  8
cotas
100
AcDbDimension
  2
*D34
 10
1308.298077040239
 20
1003.011630778378
 30
0.0
 11
1298.089883621836
 21
1020.504818795296
 31
0.0
 12
-3523.202201453687
 22
-1648.201122789731
 32
0.0
 71
     5
 42
34.98637603383349
  3
SANINDUSA
100
AcDbAlignedDimension
 13
1268.686285582916
 23
1037.998006812212
 33
0.0
 14
1269.296975048189
 24
1003.011630778378
 34
0.0
 50
90.0
100
AcDbRotatedDimension
  0
LINE
  5
15C3
330
1570
100
AcDbEntity
  8
cotas
100
AcDbLine
 10
63.7860457406855
 20
880.0677509394622
 30
0.0
 11
62.47164552585127
 21
880.0448079983707
 31
0.0
  0
DIMENSION
  5
15C4
330
1570
100
AcDbEntity
  8
cotas
100
AcDbDimension
  2
*D35
 10
19.39073304130488
 20
880.0443191579365
 30
0.0
 11
19.39073304130443
 21
480.0440813507239
 31
0.0
 12
-3523.202201453687
 22
-1648.201122789731
 32
0.0
 70
   128
 71
     5
 42
800.0004756144271
  3
SANINDUSA
100
AcDbAlignedDimension
 13
62.44363987613269
 23
80.04384354350941
 33
0.0
 14
62.44363987613315
 24
880.0443191579365
 34
0.0
 50
90.0
100
AcDbRotatedDimension
  0
DIMENSION
  5
15C5
330
1570
100
AcDbEntity
  8
cotas
100
AcDbDimension
  2
*D36
 10
1196.677049761402
 20
808.5280626845865
 30
0.0
 11
1304.54465432855
 21
846.3072272305202
 31
0.0
 12
-3523.202201453687
 22
-1648.201122789731
 32
0.0
 70
   132
  1
R4
 71
     5
 42
3.71964147683866
  3
SANINDUSA
100
AcDbRadialDimension
 15
1200.187605578519
 25
809.7575872150951
 35
0.0
 40
0.0
1001
ACAD
1000
DSTYLE
1002
{
1070
   288
1070
     1
1002
}
  0
LEADER
  5
15C6
330
1570
100
AcDbEntity
  8
cotas
100
AcDbLeader
  3
SANINDUSA
 76
     2
 10
1228.766675304809
 20
842.2656371536172
 30
0.0
 10
1187.143676889464
 20
910.7141480356817
 30
0.0
1001
ACAD
1000
DSTYLE
1002
{
1070
   147
1040
1.0
1070
    77
1070
     0
1002
}
  0
MTEXT
  5
15C7
330
1570
100
AcDbEntity
  8
cotas
100
AcDbMText
 10
1186.080963184749
 20
923.5051850317008
 30
0.0
 40
10.0
 41
21.93592118279594
 71
     1
 72
     5
  1
R500
  7
SANINDUSA
 73
     1
 44
1.0
1001
ACAD
1000
MTEXTBEGIN
1070
    73
1070
     1
1070
    44
1040
1.0
1070
    74
1070
     0
1000
MTEXTEND
  0
LINE
  5
15C8
330
1570
100
AcDbEntity
  8
cen
100
AcDbLine
 10
768.6860477757022
 20
157.2449555815324
 30
0.0
 11
768.6860477757022
 21
352.8432371673346
 31
0.0
  0
LINE
  5
15C9
330
1570
100
AcDbEntity
  8
cen
100
AcDbLine
 10
866.4851885686035
 20
255.0440963744336
 30
0.0
 11
670.886906982801
 21
255.0440963744336
 31
0.0
  0
DIMENSION
  5
15CA
102
{ACAD_XDICTIONARY
360
15CB
102
}
102
{ACAD_REACTORS
330
15CC
102
}
330
1570
100
AcDbEntity
  8
cotas
100
AcDbDimension
  2
*D37
 10
1327.830290952074
 20
680.6550086286478
 30
0.0
 11
1317.622097533671
 21
580.6550086286478
 31
0.0
 12
-3523.202201453687
 22
-1648.201122789731
 32
0.0
 71
     5
 42
200.0000000000004
  3
SANINDUSA
100
AcDbAlignedDimension
 13
1327.830290952074
 23
480.6550086286474
 33
0.0
 14
1325.34119565779
 24
680.6550086286478
 34
0.0
 50
90.0
100
AcDbRotatedDimension
  0
DIMENSION
  5
15CD
330
1570
100
AcDbEntity
  8
cotas
100
AcDbDimension
  2
*D38
 10
1327.830290952074
 20
880.6550086340845
 30
0.0
 11
1317.622097533671
 21
780.6550086313668
 31
0.0
 12
-3523.202201453687
 22
-1648.201122789731
 32
0.0
 71
     5
 42
200.000000005436
  3
SANINDUSA
100
AcDbAlignedDimension
 13
1327.830290952074
 23
680.6550086286484
 33
0.0
 14
1265.297655815172
 24
880.6550086340845
 34
0.0
 50
90.0
100
AcDbRotatedDimension
  0
ARC
  5
15CE
330
1570
100
AcDbEntity
  8
leg fin
100
AcDbCircle
 10
1385.426505007553
 20
877.0517954338728
 30
0.0
 40
120.7096732041793
100
AcDbArc
 50
178.5467147818462
 51
180.4617864597533
  0
ARC
  5
15CF
330
1570
100
AcDbEntity
  8
leg fin
100
AcDbCircle
 10
1264.754232758446
 20
876.1124033244282
 30
0.0
 40
4.000818099820047
100
AcDbArc
 50
0.0204370164062371
 51
89.97956298358074
  0
ARC
  5
15D0
330
1570
100
AcDbEntity
  8
leg fin
100
AcDbCircle
 10
1265.693624867902
 20
996.7846755738415
 30
0.0
 40
120.7096732044848
100
AcDbArc
 50
269.5382135402336
 51
271.4532852181538
  0
ARC
  5
15D1
330
1570
100
AcDbEntity
  8
leg fin
100
AcDbCircle
 10
1265.693624867888
 20
-36.69651286238604
 30
0.0
 40
120.7096732053495
100
AcDbArc
 50
88.54671478184618
 51
90.46178645976638
  0
ARC
  5
15D2
330
1570
100
AcDbEntity
  8
leg fin
100
AcDbCircle
 10
1264.754232758446
 20
83.97575938789168
 30
0.0
 40
4.000818099819592
100
AcDbArc
 50
270.0204370164193
 51
359.9795629836068
  0
ARC
  5
15D3
330
1570
100
AcDbEntity
  8
leg fin
100
AcDbCircle
 10
1385.426505008241
 20
83.03636727844651
 30
0.0
 40
120.7096732048666
100
AcDbArc
 50
179.5382135402337
 51
181.4532852181538
  0
ARC
  5
15D4
330
1570
100
AcDbEntity
  8
leg fin
100
AcDbCircle
 10
151.9453165724212
 20
877.0517954338815
 30
0.0
 40
120.7096732045601
100
AcDbArc
 50
359.5382135402337
 51
1.453285218153815
  0
ARC
  5
15D5
330
1570
100
AcDbEntity
  8
leg fin
100
AcDbCircle
 10
271.6781967124612
 20
996.7846755738928
 30
0.0
 40
120.7096732045362
100
AcDbArc
 50
268.5467147818461
 51
270.4617864597664
  0
ARC
  5
15D6
330
1570
100
AcDbEntity
  8
leg fin
100
AcDbCircle
 10
272.61758882191
 20
876.1124033244282
 30
0.0
 40
4.000818099819819
100
AcDbArc
 50
90.02043701641927
 51
179.9795629835937
  0
ARC
  5
15D7
330
1570
100
AcDbEntity
  8
leg fin
100
AcDbCircle
 10
271.6781967124575
 20
-36.696512861462
 30
0.0
 40
120.7096732044258
100
AcDbArc
 50
89.53821354023359
 51
91.45328521815383
  0
ARC
  5
15D8
330
1570
100
AcDbEntity
  8
leg fin
100
AcDbCircle
 10
151.945316572262
 20
83.03636727844333
 30
0.0
 40
120.709673204719
100
AcDbArc
 50
358.5467147818462
 51
0.4617864597663045
  0
ARC
  5
15D9
330
1570
100
AcDbEntity
  8
leg fin
100
AcDbCircle
 10
272.61758882191
 20
83.97575938789215
 30
0.0
 40
4.000818099819904
100
AcDbArc
 50
180.0204370163932
 51
269.9795629835807
  0
LINE
  5
15DA
330
1570
100
AcDbEntity
  8
leg fin
100
AcDbLine
 10
1264.686520009554
 20
867.3184873569008
 30
0.0
 11
1264.720752352064
 21
876.0789229180486
 31
0.0
  0
LINE
  5
15DB
330
1570
100
AcDbEntity
  8
leg fin
100
AcDbLine
 10
1268.755050603753
 20
876.1138303891103
 30
0.0
 11
1268.755720415925
 21
867.3184873569008
 31
0.0
  0
LINE
  5
15DC
330
1570
100
AcDbEntity
  8
leg fin
100
AcDbLine
 10
1264.686520009554
 20
867.3184873569008
 30
0.0
 11
1268.755720415929
 21
867.3184873569011
 31
0.0
  0
LINE
  5
15DD
330
1570
100
AcDbEntity
  8
leg fin
100
AcDbLine
 10
281.411504789437
 20
79.97427173041114
 30
0.0
 11
272.6161617572275
 21
79.97494154258447
 31
0.0
  0
LINE
  5
15DE
330
1570
100
AcDbEntity
  8
leg fin
100
AcDbLine
 10
272.6510692282896
 20
84.00923979427171
 30
0.0
 11
281.411504789437
 21
84.04347213678557
 31
0.0
  0
LINE
  5
15DF
330
1570
100
AcDbEntity
  8
leg fin
100
AcDbLine
 10
281.411504789437
 20
79.97427173041114
 30
0.0
 11
281.411504789437
 21
84.04347213678557
 31
0.0
  0
LINE
  5
15E0
330
1570
100
AcDbEntity
  8
leg fin
100
AcDbLine
 10
1264.720752352068
 20
876.0789229180486
 30
0.0
 11
1255.960316790906
 21
876.0446905755348
 31
0.0
  0
LINE
  5
15E1
330
1570
100
AcDbEntity
  8
leg fin
100
AcDbLine
 10
1255.960316790906
 20
876.0446905755348
 30
0.0
 11
1255.960316790906
 21
880.1138909819092
 31
0.0
  0
LINE
  5
15E2
330
1570
100
AcDbEntity
  8
leg fin
100
AcDbLine
 10
1255.960316790906
 20
880.1138909819092
 30
0.0
 11
1264.755659823129
 21
880.1132211697359
 31
0.0
  0
LINE
  5
15E3
330
1570
100
AcDbEntity
  8
leg fin
100
AcDbLine
 10
1264.755659823129
 20
79.97494154258447
 30
0.0
 11
1255.960316790913
 21
79.97427173041114
 31
0.0
  0
LINE
  5
15E4
330
1570
100
AcDbEntity
  8
leg fin
100
AcDbLine
 10
1255.960316790913
 20
79.97427173041114
 30
0.0
 11
1255.960316790913
 21
84.04347213678557
 31
0.0
  0
LINE
  5
15E5
330
1570
100
AcDbEntity
  8
leg fin
100
AcDbLine
 10
1255.960316790913
 20
84.04347213678557
 30
0.0
 11
1264.720752352068
 21
84.00923979427171
 31
0.0
  0
LINE
  5
15E6
330
1570
100
AcDbEntity
  8
leg fin
100
AcDbLine
 10
1264.720752352064
 20
84.00923979427171
 30
0.0
 11
1264.686520009554
 21
92.76967535542416
 31
0.0
  0
LINE
  5
15E7
330
1570
100
AcDbEntity
  8
leg fin
100
AcDbLine
 10
1264.686520009554
 20
92.76967535542416
 30
0.0
 11
1268.755720415929
 21
92.76967535542416
 31
0.0
  0
LINE
  5
15E8
330
1570
100
AcDbEntity
  8
leg fin
100
AcDbLine
 10
1268.755720415925
 20
92.76967535542416
 30
0.0
 11
1268.755050603753
 21
83.97433232321009
 31
0.0
  0
LINE
  5
15E9
330
1570
100
AcDbEntity
  8
leg fin
100
AcDbLine
 10
272.6161617572284
 20
880.1132211697359
 30
0.0
 11
281.4115047894452
 21
880.1138909819092
 31
0.0
  0
LINE
  5
15EA
330
1570
100
AcDbEntity
  8
leg fin
100
AcDbLine
 10
281.4115047894452
 20
876.0446905755348
 30
0.0
 11
281.4115047894452
 21
880.1138909819092
 31
0.0
  0
LINE
  5
15EB
330
1570
100
AcDbEntity
  8
leg fin
100
AcDbLine
 10
281.4115047894452
 20
876.0446905755348
 30
0.0
 11
272.6510692282896
 21
876.0789229180486
 31
0.0
  0
LINE
  5
15EC
330
1570
100
AcDbEntity
  8
leg fin
100
AcDbLine
 10
268.6161011644285
 20
867.318487356893
 30
0.0
 11
268.6167709766028
 21
876.1138303891103
 31
0.0
  0
LINE
  5
15ED
330
1570
100
AcDbEntity
  8
leg fin
100
AcDbLine
 10
272.6510692282896
 20
876.0789229180486
 30
0.0
 11
272.6853015708034
 21
867.318487356893
 31
0.0
  0
LINE
  5
15EE
330
1570
100
AcDbEntity
  8
leg fin
100
AcDbLine
 10
268.6161011644285
 20
867.318487356893
 30
0.0
 11
272.6853015708034
 21
867.318487356893
 31
0.0
  0
LINE
  5
15EF
330
1570
100
AcDbEntity
  8
leg fin
100
AcDbLine
 10
268.6167709766019
 20
83.97433232321009
 30
0.0
 11
268.6161011644285
 21
92.76967535543191
 31
0.0
  0
LINE
  5
15F0
330
1570
100
AcDbEntity
  8
leg fin
100
AcDbLine
 10
268.6161011644285
 20
92.76967535543191
 30
0.0
 11
272.6853015708034
 21
92.76967535543191
 31
0.0
  0
LINE
  5
15F1
330
1570
100
AcDbEntity
  8
leg fin
100
AcDbLine
 10
272.6853015708034
 20
92.76967535543191
 30
0.0
 11
272.6510692282896
 21
84.00923979427171
 31
0.0
  0
LINE
  5
15F2
330
1570
100
AcDbEntity
  8
leg fin
100
AcDbLine
 10
1264.686520009554
 20
867.3184873569008
 30
0.0
 11
1201.998526881304
 21
804.630494228677
 31
0.0
  0
LINE
  5
15F3
330
1570
100
AcDbEntity
  8
leg fin
100
AcDbLine
 10
1202.004068862527
 20
805.9818261056843
 30
0.0
 11
1201.998526881304
 21
804.6304942286765
 31
0.0
  0
ARC
  5
15F4
330
1570
100
AcDbEntity
  8
leg fin
100
AcDbCircle
 10
1194.66175771274
 20
806.0199282628568
 30
0.0
 40
7.342410012706682
100
AcDbArc
 50
359.7026722028863
 51
90.29717606335616
  0
LINE
  5
15F5
330
1570
100
AcDbEntity
  8
leg fin
100
AcDbLine
 10
1193.272327205283
 20
813.3567009899362
 30
0.0
 11
1194.623674999872
 21
813.3622395135239
 31
0.0
  0
LINE
  5
15F6
330
1570
100
AcDbEntity
  8
leg fin
100
AcDbLine
 10
1193.272327205283
 20
813.3567009899362
 30
0.0
 11
1255.960316790906
 21
876.0446905755348
 31
0.0
  0
LINE
  5
15F7
330
1570
100
AcDbEntity
  8
leg fin
100
AcDbLine
 10
335.3734435779447
 20
804.6303453497516
 30
0.0
 11
335.3678634550074
 21
805.9816332731298
 31
0.0
  0
LINE
  5
15F8
330
1570
100
AcDbEntity
  8
leg fin
100
AcDbLine
 10
335.3734435779447
 20
804.6303453497516
 30
0.0
 11
272.6853015708034
 21
867.318487356893
 31
0.0
  0
LINE
  5
15F9
330
1570
100
AcDbEntity
  8
leg fin
100
AcDbLine
 10
281.4115047894452
 20
876.0446905755348
 30
0.0
 11
344.0996401317457
 21
813.3565552332342
 31
0.0
  0
LINE
  5
15FA
330
1570
100
AcDbEntity
  8
leg fin
100
AcDbLine
 10
342.7483191242686
 20
813.3621288659973
 30
0.0
 11
344.0996401317457
 21
813.3565552332342
 31
0.0
  0
ARC
  5
15FB
330
1570
100
AcDbEntity
  8
leg fin
100
AcDbCircle
 10
342.7100482808242
 20
806.0199438330524
 30
0.0
 40
7.342284774881976
100
AcDbArc
 50
89.70135076417497
 51
180.2989591689535
  0
LINE
  5
15FC
330
1570
100
AcDbEntity
  8
leg fin
100
AcDbLine
 10
1202.003936003134
 20
155.4522593618444
 30
0.0
 11
1202.008101636451
 21
154.0993309836508
 31
0.0
  0
LINE
  5
15FD
330
1570
100
AcDbEntity
  8
leg fin
100
AcDbLine
 10
1202.003936003134
 20
155.4522593618439
 30
0.0
 11
1264.686520009554
 21
92.76967535542416
 31
0.0
  0
LINE
  5
15FE
330
1570
100
AcDbEntity
  8
leg fin
100
AcDbLine
 10
1255.960316790913
 20
84.04347213678557
 30
0.0
 11
1193.277759991932
 21
146.7260289357682
 31
0.0
  0
LINE
  5
15FF
330
1570
100
AcDbEntity
  8
leg fin
100
AcDbLine
 10
1194.630743895681
 20
146.7218902343634
 30
0.0
 11
1193.277759991932
 21
146.7260289357678
 31
0.0
  0
ARC
  5
1600
330
1570
100
AcDbEntity
  8
leg fin
100
AcDbCircle
 10
1194.661189150944
 20
154.068803062898
 30
0.0
 40
7.346975910104279
100
AcDbArc
 50
269.7625703899522
 51
0.2380742867694661
  0
LINE
  5
1601
330
1570
100
AcDbEntity
  8
leg fin
100
AcDbLine
 10
344.0940149681278
 20
146.7259823155013
 30
0.0
 11
342.7410135848772
 21
146.7218563969727
 31
0.0
  0
LINE
  5
1602
330
1570
100
AcDbEntity
  8
leg fin
100
AcDbLine
 10
344.0940149681278
 20
146.7259823155013
 30
0.0
 11
281.411504789437
 21
84.04347213678557
 31
0.0
  0
LINE
  5
1603
330
1570
100
AcDbEntity
  8
leg fin
100
AcDbLine
 10
272.6853015708034
 20
92.76967535543191
 30
0.0
 11
335.3678418869508
 21
155.4522156716048
 31
0.0
  0
LINE
  5
1604
330
1570
100
AcDbEntity
  8
leg fin
100
AcDbLine
 10
335.3636861574955
 20
154.0992824462628
 30
0.0
 11
335.3678418869508
 21
155.4522156716048
 31
0.0
  0
ARC
  5
1605
330
1570
100
AcDbEntity
  8
leg fin
100
AcDbCircle
 10
342.7106372125277
 20
154.0688078587372
 30
0.0
 40
7.347014257882169
100
AcDbArc
 50
179.7623428792716
 51
270.2368911819233
  0
LINE
  5
1606
330
1570
100
AcDbEntity
  8
leg fin
100
AcDbLine
 10
1264.686520009554
 20
92.76967535542416
 30
0.0
 11
1264.686520009554
 21
867.3184873569008
 31
0.0
  0
LINE
  5
1607
330
1570
100
AcDbEntity
  8
leg fin
100
AcDbLine
 10
1268.755720415929
 20
867.3184873569011
 30
0.0
 11
1268.755720415929
 21
92.76967535542416
 31
0.0
  0
LINE
  5
1608
330
1570
100
AcDbEntity
  8
leg fin
100
AcDbLine
 10
1255.960316790913
 20
79.97427173041114
 30
0.0
 11
281.411504789437
 21
79.97427173041114
 31
0.0
  0
LINE
  5
1609
330
1570
100
AcDbEntity
  8
leg fin
100
AcDbLine
 10
281.411504789437
 20
84.04347213678557
 30
0.0
 11
1255.960316790913
 21
84.04347213678557
 31
0.0
  0
LINE
  5
160A
330
1570
100
AcDbEntity
  8
leg fin
100
AcDbLine
 10
268.6161011644285
 20
92.76967535543191
 30
0.0
 11
268.6161011644285
 21
867.318487356893
 31
0.0
  0
LINE
  5
160B
330
1570
100
AcDbEntity
  8
leg fin
100
AcDbLine
 10
272.6853015708034
 20
867.318487356893
 30
0.0
 11
272.6853015708034
 21
92.76967535543191
 31
0.0
  0
LINE
  5
160C
330
1570
100
AcDbEntity
  8
leg fin
100
AcDbLine
 10
1255.960316790906
 20
876.0446905755348
 30
0.0
 11
281.4115047894452
 21
876.0446905755348
 31
0.0
  0
LINE
  5
160D
330
1570
100
AcDbEntity
  8
leg fin
100
AcDbLine
 10
281.4115047894452
 20
880.1138909819092
 30
0.0
 11
1255.960316790906
 21
880.1138909819092
 31
0.0
  0
LWPOLYLINE
  5
160E
330
1570
100
AcDbEntity
  8
leg fin
100
AcDbPolyline
 90
       21
 70
     0
 43
0.0
 10
1193.277759991932
 20
146.7260289357682
 10
1137.08049465038
 20
146.6649930563048
 10
1108.98185583484
 20
146.6396372440063
 10
1024.685915215305
 20
146.5838771223825
 10
960.6859120584655
 20
146.556659331944
 10
896.6859074954667
 20
146.5335505887619
 10
864.6859085654764
 20
146.5141998205313
 10
835.4359200875919
 20
146.4829027109381
 10
797.1859440976718
 20
146.4312447880434
 10
790.0609455374492
 20
146.4239581299575
 10
782.9359458367076
 20
146.4184448205733
 10
768.685933551837
 20
146.4138639648254
 10
752.6859335455451
 20
146.4195989683198
 10
688.6859733763563
 20
146.4986788696951
 10
656.6859829970949
 20
146.5249336807833
 10
624.6859795344493
 20
146.5391766786092
 10
560.6859834061292
 20
146.5614468229855
 10
496.6859901890853
 20
146.59133966438
 10
432.6859702938841
 20
146.6352251924604
 10
388.3899890910011
 20
146.6763081003528
 10
344.0940149681278
 20
146.7259823155013
  0
LWPOLYLINE
  5
160F
330
1570
100
AcDbEntity
  8
leg fin
100
AcDbPolyline
 90
        9
 70
     0
 43
0.0
 10
1202.061494429762
 20
255.0435687935428
 10
1202.061110094312
 20
247.0435687824879
 10
1202.059880596788
 20
239.0435687518488
 10
1202.053359212772
 20
217.7102362806954
 10
1202.048123591958
 20
207.0435704269026
 10
1202.041534463513
 20
196.3769060541558
 10
1202.024301064128
 20
175.0435744344072
 10
1202.014668988053
 20
165.2479163857556
 10
1202.003936003134
 20
155.4522593618444
  0
LWPOLYLINE
  5
1610
330
1570
100
AcDbEntity
  8
leg fin
100
AcDbPolyline
 90
        6
 70
     0
 43
0.0
 10
1201.998526881304
 20
804.630494228677
 10
1202.000886759419
 20
788.6304944027155
 10
1202.00964608018
 20
724.630495000124
 10
1202.038734636979
 20
468.6304966212137
 10
1202.044329860466
 20
416.0449263955565
 10
1202.061492954019
 20
255.0435687935082
  0
LWPOLYLINE
  5
1611
330
1570
100
AcDbEntity
  8
leg fin
100
AcDbPolyline
 90
        8
 70
     0
 43
0.0
 10
768.6860477757022
 20
813.403941051744
 10
784.6860477674804
 20
813.4046250968136
 10
848.6860478172916
 20
813.4025340385537
 10
934.019380728842
 20
813.3934652604152
 10
976.6860471017867
 20
813.3877255434745
 10
1019.35271325372
 20
813.381698279613
 10
1104.686046151565
 20
813.3695015316103
 10
1193.272327205283
 20
813.3567009899362
  0
LWPOLYLINE
  5
1612
330
1570
100
AcDbEntity
  8
leg fin
100
AcDbPolyline
 90
        5
 70
     0
 43
0.0
 10
344.0996401317457
 20
813.3565552332342
 10
360.0996400163836
 20
813.3584785687608
 10
424.0996396305531
 20
813.3655142439028
 10
680.0996380834044
 20
813.3936582240572
 10
768.6860477710001
 20
813.4040072132179
  0
LWPOLYLINE
  5
1613
330
1570
100
AcDbEntity
  8
leg fin
100
AcDbPolyline
 90
        5
 70
     0
 43
0.0
 10
335.3103098127108
 20
255.0434888052046
 10
335.312156257633
 20
271.0434886986345
 10
335.3197364565599
 20
335.0434882497816
 10
335.3495628932765
 20
591.0434865136007
 10
335.3734435779447
 20
804.6303453497516
  0
LWPOLYLINE
  5
1614
330
1570
100
AcDbEntity
  8
leg fin
100
AcDbPolyline
 90
        6
 70
     0
 43
0.0
 10
335.3678418869508
 20
155.4522156716048
 10
335.3507768766371
 20
171.4522066519253
 10
335.3255383333258
 20
203.4521972517709
 10
335.3168549523593
 20
221.2476451514126
 10
335.3119094551171
 20
239.0430952791362
 10
335.3103522774522
 20
255.0434888048135
  0
ARC
  5
1615
330
1570
100
AcDbEntity
  8
SANINDUSA
100
AcDbCircle
 10
342.743848951744
 20
154.1020195005308
 30
0.0
 40
3.72196007932115
100
AcDbArc
 50
180.0575061183548
 51
269.9417340209665
  0
LWPOLYLINE
  5
1616
330
1570
100
AcDbEntity
  8
leg fin
100
AcDbPolyline
 90
        9
 70
     0
 43
0.0
 10
342.7400639677112
 20
150.3800613457479
 10
342.7406042611506
 20
150.1245183885808
 10
342.7410362367232
 20
149.7936694041277
 10
342.7413505117806
 20
149.3947005389773
 10
342.7415402601678
 20
148.9362775254853
 10
342.7416013604866
 20
148.4283574592746
 10
342.7415324856206
 20
147.8819725279077
 10
342.7413351315531
 20
147.3089903882169
 10
342.7410135848772
 20
146.7218563969727
  0
LWPOLYLINE
  5
1617
330
1570
100
AcDbEntity
  8
leg fin
100
AcDbPolyline
 90
        9
 70
     0
 43
0.0
 10
339.0218907470912
 20
154.0982838773716
 10
338.766347812048
 20
154.0988276313969
 10
338.4354988610007
 20
154.099264064168
 10
338.0365300386234
 20
154.0995836962265
 10
337.5781070749076
 20
154.0997795850617
 10
337.0701870627458
 20
154.0998474759058
 10
336.5238021866994
 20
154.0997858941482
 10
335.9508201004323
 20
154.0995961773642
 10
335.3636861574955
 20
154.0992824462628
  0
ARC
  5
1618
330
1570
100
AcDbEntity
  8
SANINDUSA
100
AcDbCircle
 10
1194.62797792687
 20
154.1020142049719
 30
0.0
 40
3.721940470390161
100
AcDbArc
 50
270.0577301313671
 51
359.9429094295469
  0
LWPOLYLINE
  5
1619
330
1570
100
AcDbEntity
  8
leg fin
100
AcDbPolyline
 90
        9
 70
     0
 43
0.0
 10
1198.349916549596
 20
154.0983055955198
 10
1198.605463230357
 20
154.0988512483068
 10
1198.936313727636
 20
154.0992901248069
 10
1199.335282025004
 20
154.0996126926975
 10
1199.793702599011
 20
154.0998119458586
 10
1200.301618632897
 20
154.0998835565451
 10
1200.847998276937
 20
154.099825969386
 10
1201.420974258354
 20
154.099640435164
 10
1202.008101636451
 20
154.0993309836508
  0
LWPOLYLINE
  5
161A
330
1570
100
AcDbEntity
  8
leg fin
100
AcDbPolyline
 90
        9
 70
     0
 43
0.0
 10
1194.631728082252
 20
150.3800756238747
 10
1194.63118534222
 20
150.1245289244684
 10
1194.630750217279
 20
149.7936783990394
 10
1194.630432158272
 20
149.3947100656342
 10
1194.630238073389
 20
148.9362894496876
 10
1194.63017217812
 20
148.4283733702636
 10
1194.630235903698
 20
147.8819936796103
 10
1194.630427866014
 20
147.3090176531736
 10
1194.630743895681
 20
146.7218902343634
  0
LWPOLYLINE
  5
161B
330
1570
100
AcDbEntity
  8
leg fin
100
AcDbPolyline
 90
        9
 70
     0
 43
0.0
 10
1198.34821261777
 20
805.986654869061
 10
1198.604202674195
 20
805.9858393757336
 10
1198.935235205579
 20
805.9850535729301
 10
1199.334139485458
 20
805.9843144824727
 10
1199.792274570098
 20
805.9836381143155
 10
1200.299716476011
 20
805.9830391197406
 10
1200.845473150274
 20
805.9825304739865
 10
1201.417722577053
 20
805.9821231951845
 10
1202.004068862527
 20
805.9818261056843
  0
ARC
  5
161C
330
1570
100
AcDbEntity
  8
SANINDUSA
100
AcDbCircle
 10
1194.628606836141
 20
805.9867774055891
 30
0.0
 40
3.719605783647002
100
AcDbArc
 50
359.9981124811803
 51
90.00173698914336
  0
LWPOLYLINE
  5
161D
330
1570
100
AcDbEntity
  8
leg fin
100
AcDbPolyline
 90
        9
 70
     0
 43
0.0
 10
1194.623674999872
 20
813.3622395135239
 10
1194.623970543153
 20
812.7758932168703
 10
1194.624376310911
 20
812.2036437779401
 10
1194.624883513529
 20
811.6578870912221
 10
1194.625481164136
 20
811.1504451732081
 10
1194.626156316607
 20
810.6923100774443
 10
1194.626894345989
 20
810.2934057879883
 10
1194.627679265317
 20
809.9623732490609
 10
1194.628494071905
 20
809.7063831875271
  0
LWPOLYLINE
  5
161E
330
1570
100
AcDbEntity
  8
leg fin
100
AcDbPolyline
 90
        9
 70
     0
 43
0.0
 10
342.7483191242686
 20
813.3621288659973
 10
342.7480085178354
 20
812.7758039416367
 10
342.7475880266416
 20
812.2035743833713
 10
342.7470667585735
 20
811.6578347457803
 10
342.746456004354
 20
811.1504058088744
 10
342.7457689929856
 20
810.6922785387146
 10
342.7450206052094
 20
810.2933760218871
 10
342.7442270511869
 20
809.9623385303688
 10
342.743405519384
 20
809.7063363722941
  0
ARC
  5
161F
330
1570
100
AcDbEntity
  8
SANINDUSA
100
AcDbCircle
 10
342.7431975451195
 20
805.9867946082436
 30
0.0
 40
3.719541769864394
100
AcDbArc
 50
89.99679636676102
 51
180.0035111069157
  0
LWPOLYLINE
  5
1620
330
1570
100
AcDbEntity
  8
leg fin
100
AcDbPolyline
 90
        9
 70
     0
 43
0.0
 10
335.3678634550074
 20
805.9816332731298
 10
335.9541883564503
 20
805.9819470377766
 10
336.526417889811
 20
805.9823706153387
 10
337.072157501882
 20
805.9828948310819
 10
337.5795864139977
 20
805.9835083304365
 10
338.0377136613711
 20
805.9841978249396
 10
338.4366161585754
 20
805.9849483800666
 10
338.7676536346376
 20
805.9857437387131
 10
339.0236557822395
 20
805.9865666733257
  0
LWPOLYLINE
  5
1621
330
1570
100
AcDbEntity
  8
SANINDUSA
100
AcDbPolyline
 90
        9
 70
     0
 43
0.0
 10
344.098450852553
 20
150.3795516562513
 10
432.6890622846171
 20
150.3415936312217
 10
560.6896744782538
 20
150.316778665459
 10
688.6901544327433
 20
150.2870784670613
 10
752.6886753302501
 20
150.2582252733264
 10
768.6859292829945
 20
150.2562761712588
 10
896.6849784994597
 20
150.281928320735
 10
1024.68399891672
 20
150.3206355183697
 10
1193.273359593168
 20
150.3795713931918
  0
LWPOLYLINE
  5
1622
330
1570
100
AcDbEntity
  8
leg fin
100
AcDbPolyline
 90
        9
 70
     0
 43
0.0
 10
1193.273359593168
 20
150.3795713931918
 10
1193.273674148572
 20
150.1245062106159
 10
1193.274077322691
 20
149.7942166241801
 10
1193.274560370996
 20
149.3958663541743
 10
1193.275112816551
 20
148.9380953033655
 10
1193.275722677252
 20
148.4308321643302
 10
1193.276376725697
 20
147.8850790739516
 10
1193.277060776094
 20
147.3126729857626
 10
1193.277759991932
 20
146.7260289357682
  0
LWPOLYLINE
  5
1623
330
1570
100
AcDbEntity
  8
leg fin
100
AcDbPolyline
 90
        9
 70
     0
 43
0.0
 10
344.098450852553
 20
150.3795516562513
 10
344.0981337688922
 20
150.1244916700557
 10
344.0977273489093
 20
149.794204238281
 10
344.0972404078079
 20
149.3958532578863
 10
344.0966835072854
 20
148.9380789164875
 10
344.096068726451
 20
148.4308102876648
 10
344.0954093998321
 20
147.8850499704826
 10
344.0947198281469
 20
147.3126354443634
 10
344.0940149681278
 20
146.7259823155013
  0
LWPOLYLINE
  5
1624
330
1570
100
AcDbEntity
  8
leg fin
100
AcDbPolyline
 90
        9
 70
     0
 43
0.0
 10
335.3734435779447
 20
804.6303453497516
 10
335.9590041095503
 20
804.6302740188298
 10
336.5304030143138
 20
804.6302042292682
 10
337.0752931659968
 20
804.6301374891223
 10
337.5819002552085
 20
804.6300752405514
 10
338.0392772156661
 20
804.6300188286609
 10
338.4375407748899
 20
804.6299694724311
 10
338.7680850178163
 20
804.6299282383815
 10
339.0237673485076
 20
804.6298960175217
  0
LWPOLYLINE
  5
1625
330
1570
100
AcDbEntity
  8
SANINDUSA
100
AcDbPolyline
 90
        7
 70
     0
 43
0.0
 10
339.0237673485076
 20
804.6298960175217
 10
339.0233574895406
 20
796.629896149288
 10
339.021765932293
 20
764.6298966492564
 10
339.0157822541382
 20
636.6298984625736
 10
339.0066932703826
 20
445.8364794746658
 10
339.0052132824135
 20
416.0445559199265
 10
338.9972120124689
 20
255.0430609461086
  0
LWPOLYLINE
  5
1626
330
1570
100
AcDbEntity
  8
leg fin
100
AcDbPolyline
 90
        5
 70
     0
 43
0.0
 10
335.3103098127108
 20
255.0434888052046
 10
336.4917291888955
 20
255.043352986339
 10
337.5608662862273
 20
255.0432293555309
 10
338.4217793150651
 20
255.0431290071129
 10
338.9972120124689
 20
255.0430609461091
  0
LWPOLYLINE
  5
1627
330
1570
100
AcDbEntity
  8
SANINDUSA
100
AcDbPolyline
 90
        5
 70
     0
 43
0.0
 10
338.9972297110339
 20
255.0433359448657
 10
338.9973981169583
 20
247.0433359340727
 10
339.0010266400764
 20
215.0433378419198
 10
339.0127360641859
 20
175.0465718345658
 10
339.0213938326056
 20
155.4565375079719
  0
LWPOLYLINE
  5
1628
330
1570
100
AcDbEntity
  8
leg fin
100
AcDbPolyline
 90
        9
 70
     0
 43
0.0
 10
335.3678418869508
 20
155.4522156716048
 10
335.9544891219898
 20
155.4529024059061
 10
336.5268981712065
 20
155.4535742453204
 10
337.0726537992755
 20
155.4542166180231
 10
337.5799188688156
 20
155.4548155913062
 10
338.0376910813479
 20
155.4553581737705
 10
338.4360416110571
 20
155.4558325971024
 10
338.7663304555267
 20
155.4562285713236
 10
339.0213938326056
 20
155.4565375079719
  0
LWPOLYLINE
  5
1629
330
1570
100
AcDbEntity
  8
SANINDUSA
100
AcDbPolyline
 90
        5
 70
     0
 43
0.0
 10
1198.350409249883
 20
155.4565538903721
 10
1198.354154919207
 20
163.4565425963424
 10
1198.365990434415
 20
195.4565136852266
 10
1198.373929354924
 20
239.0440067824197
 10
1198.374602347434
 20
255.0431108852995
  0
LWPOLYLINE
  5
162A
330
1570
100
AcDbEntity
  8
leg fin
100
AcDbPolyline
 90
        5
 70
     0
 43
0.0
 10
1198.374601725753
 20
255.0431991822606
 10
1198.95003797891
 20
255.043257978095
 10
1199.81094949511
 20
255.0433446653888
 10
1200.880081165964
 20
255.0434514651351
 10
1202.061492954017
 20
255.0435687935082
  0
LWPOLYLINE
  5
162B
330
1570
100
AcDbEntity
  8
leg fin
100
AcDbPolyline
 90
        9
 70
     0
 43
0.0
 10
1198.350409249883
 20
155.4565538903721
 10
1198.605477494053
 20
155.4562468981667
 10
1198.935768356067
 20
155.4558534210332
 10
1199.334118219295
 20
155.4553819930229
 10
1199.791887348176
 20
155.4548428388502
 10
1200.299147273832
 20
155.4542476521287
 10
1200.844896130766
 20
155.4536093417514
 10
1201.417297274257
 20
155.4529417519129
 10
1202.003936003134
 20
155.4522593618439
  0
LWPOLYLINE
  5
162C
330
1570
100
AcDbEntity
  8
SANINDUSA
100
AcDbPolyline
 90
        8
 70
     0
 43
0.0
 10
1198.374601725753
 20
255.0431991822606
 10
1198.374268389778
 20
263.0431990760822
 10
1198.372880251313
 20
295.0431986193393
 10
1198.367115592833
 20
423.043196705018
 10
1198.361408996274
 20
550.2387782395285
 10
1198.358449880163
 20
613.8365689701727
 10
1198.355319207995
 20
677.434359615198
 10
1198.348117363203
 20
804.6299404049937
  0
LWPOLYLINE
  5
162D
330
1570
100
AcDbEntity
  8
leg fin
100
AcDbPolyline
 90
        9
 70
     0
 43
0.0
 10
1198.348117363203
 20
804.6299404049937
 10
1198.603783378283
 20
804.6299801154569
 10
1198.93432092026
 20
804.6300309362832
 10
1199.332586831115
 20
804.6300917691969
 10
1199.789974293244
 20
804.6301612995543
 10
1200.296598829082
 20
804.6302380247535
 10
1200.841511911893
 20
804.6303202867065
 10
1201.412937571439
 20
804.6304063076732
 10
1201.998526881304
 20
804.630494228677
  0
LWPOLYLINE
  5
162E
330
1570
100
AcDbEntity
  8
leg fin
100
AcDbPolyline
 90
        9
 70
     0
 43
0.0
 10
1193.272327205283
 20
813.3567009899362
 10
1193.27223777102
 20
812.7711109949697
 10
1193.272150269502
 20
812.1996846985071
 10
1193.272066591704
 20
811.6547710698251
 10
1193.27198854597
 20
811.1481461187091
 10
1193.271917818927
 20
810.6907584066712
 10
1193.271855939045
 20
810.292492439969
 10
1193.271804243596
 20
809.9619550576953
 10
1193.271763849756
 20
809.7062894312502
  0
LWPOLYLINE
  5
162F
330
1570
100
AcDbEntity
  8
SANINDUSA
100
AcDbPolyline
 90
       10
 70
     0
 43
0.0
 10
1193.271763849756
 20
809.7062894312502
 10
1185.271764056099
 20
809.7068021276731
 10
1153.271764834252
 20
809.7087852550703
 10
1025.271767882379
 20
809.7165000972736
 10
961.1254568919635
 20
809.7202944182626
 10
896.979145643591
 20
809.7237267758924
 10
896.9791456529188
 20
809.7237267758918
 10
832.8328336431246
 20
809.7260172549946
 10
800.7596767080089
 20
809.7264939103334
 10
768.6865195248251
 20
809.726202253732
  0
LWPOLYLINE
  5
1630
330
1570
100
AcDbEntity
  8
leg fin
100
AcDbPolyline
 90
        5
 70
     0
 43
0.0
 10
768.6861513929366
 20
813.4039410591054
 10
768.6862351281656
 20
812.2288024133386
 10
768.6863114309549
 20
811.1641668722608
 10
768.6863735285774
 20
810.3045327659179
 10
768.6864159091733
 20
809.7262022506487
  0
LWPOLYLINE
  5
1631
330
1570
100
AcDbEntity
  8
SANINDUSA
100
AcDbPolyline
 90
        6
 70
     0
 43
0.0
 10
768.6864696498765
 20
809.726229956238
 10
760.6864697819769
 20
809.7258481202411
 10
728.686470328787
 20
809.7242883529011
 10
600.6864724313304
 20
809.7180769835949
 10
472.3932891453928
 20
809.7122025846715
 10
344.100105843791
 20
809.7062276238593
  0
LWPOLYLINE
  5
1632
330
1570
100
AcDbEntity
  8
leg fin
100
AcDbPolyline
 90
        9
 70
     0
 43
0.0
 10
344.0996401317457
 20
813.3565552332342
 10
344.0997140630248
 20
812.7709934131058
 10
344.0997863967473
 20
812.1995933104244
 10
344.0998555698739
 20
811.654702132037
 10
344.0999200876654
 20
811.1480942617031
 10
344.0999785559766
 20
810.6907168310995
 10
344.1000297113837
 20
810.2924531666676
 10
344.1000724484861
 20
809.9619092238853
 10
344.100105843791
 20
809.7062276238593
  0
LINE
  5
1633
330
1570
100
AcDbEntity
  8
SANINDUSA
100
AcDbLine
 10
342.7400639677112
 20
150.3800613457479
 30
0.0
 11
344.098450852553
 21
150.3795516562513
 31
0.0
  0
LINE
  5
1634
330
1570
100
AcDbEntity
  8
SANINDUSA
100
AcDbLine
 10
1193.273359593168
 20
150.3795713931918
 30
0.0
 11
1194.631728082252
 21
150.3800756238743
 31
0.0
  0
LINE
  5
1635
330
1570
100
AcDbEntity
  8
SANINDUSA
100
AcDbLine
 10
339.0213938326056
 20
155.4565375079719
 30
0.0
 11
339.0218907470912
 21
154.0982838773716
 31
0.0
  0
LINE
  5
1636
330
1570
100
AcDbEntity
  8
SANINDUSA
100
AcDbLine
 10
1198.349916549596
 20
154.0983055955198
 30
0.0
 11
1198.350409249881
 21
155.4565538903721
 31
0.0
  0
LINE
  5
1637
330
1570
100
AcDbEntity
  8
SANINDUSA
100
AcDbLine
 10
1194.628494071905
 20
809.7063831875271
 30
0.0
 11
1193.271763849756
 21
809.7062894312502
 31
0.0
  0
LINE
  5
1638
330
1570
100
AcDbEntity
  8
SANINDUSA
100
AcDbLine
 10
1198.348117363203
 20
804.6299404049937
 30
0.0
 11
1198.34821261777
 21
805.986654869061
 31
0.0
  0
LINE
  5
1639
330
1570
100
AcDbEntity
  8
SANINDUSA
100
AcDbLine
 10
339.0236557822395
 20
805.9865666733257
 30
0.0
 11
339.0237673485076
 21
804.6298960175217
 31
0.0
  0
LINE
  5
163A
330
1570
100
AcDbEntity
  8
SANINDUSA
100
AcDbLine
 10
344.100105843791
 20
809.7062276238593
 30
0.0
 11
342.743405519384
 21
809.7063363722936
 31
0.0
  0
LWPOLYLINE
  5
163B
330
1570
100
AcDbEntity
  8
leg fin
100
AcDbPolyline
 90
       11
 70
     0
 43
0.0
 10
342.7304914928586
 20
154.0888176556359
 10
459.6794065944
 20
153.718907613545
 10
576.6293100928046
 20
153.4795377411387
 10
635.1102078027711
 20
153.3892475309335
 10
693.5908431070279
 20
153.1809457412273
 10
752.0689885883844
 20
152.7147176971266
 10
781.3099714589903
 20
152.6950078822519
 10
810.5524895256554
 20
152.9137457243682
 10
906.5726446703015
 20
153.4002547617169
 10
1002.596513659279
 20
153.5558298895616
 10
1194.641225340938
 20
154.0888977624736
  0
LWPOLYLINE
  5
163C
330
1570
100
AcDbEntity
  8
leg fin
100
AcDbPolyline
 90
        9
 70
     0
 43
0.0
 10
1194.641225340938
 20
154.0888977624731
 10
1194.640955619878
 20
153.4948906192921
 10
1194.640383273114
 20
152.9143686931511
 10
1194.639520999567
 20
152.3602122937855
 10
1194.6383879309
 20
151.8447167467375
 10
1194.637009207038
 20
151.3793195912535
 10
1194.635415418365
 20
150.9743468102851
 10
1194.63364192701
 20
150.63878372311
 10
1194.631728082252
 20
150.3800756238747
  0
LWPOLYLINE
  5
163D
330
1570
100
AcDbEntity
  8
leg fin
100
AcDbPolyline
 90
        9
 70
     0
 43
0.0
 10
342.7304914928586
 20
154.0888176556359
 10
342.7307633868263
 20
153.4948154732578
 10
342.7313402927353
 20
152.9143001083289
 10
342.7322094106789
 20
152.3601515517885
 10
342.7333514573934
 20
151.844664789814
 10
342.7347410940988
 20
151.379277012918
 10
342.7363474886929
 20
150.9743138570979
 10
342.7381349998327
 20
150.6387603072371
 10
342.7400639677112
 20
150.3800613457479
  0
LWPOLYLINE
  5
163E
330
1570
100
AcDbEntity
  8
leg fin
100
AcDbPolyline
 90
        9
 70
     0
 43
0.0
 10
339.0236557822395
 20
805.9865666733257
 10
339.2835990110493
 20
805.9867611105342
 10
339.6205037790182
 20
805.9869412103571
 10
340.0268768386054
 20
805.9871029671136
 10
340.4936798673584
 20
805.987242783101
 10
341.0105304932254
 20
805.9873575486104
 10
341.5659332134733
 20
805.987444711091
 10
342.147535071234
 20
805.9875023319236
 10
342.7424004030677
 20
805.9875291295384
  0
LWPOLYLINE
  5
163F
330
1570
100
AcDbEntity
  8
leg fin
100
AcDbPolyline
 90
        9
 70
     0
 43
0.0
 10
342.743405519384
 20
809.7063363722941
 10
342.7432024615741
 20
809.4463892187951
 10
342.7430143770748
 20
809.1094785986438
 10
342.742845449266
 20
808.7030980856933
 10
342.7426994354423
 20
808.23628640477
 10
342.7425795832482
 20
807.7194263921432
 10
342.7424885584392
 20
807.1640140602417
 10
342.7424283855903
 20
806.5824029030759
 10
342.7424004030677
 20
805.9875291295384
  0
LWPOLYLINE
  5
1640
330
1570
100
AcDbEntity
  8
leg fin
100
AcDbPolyline
 90
        9
 70
     0
 43
0.0
 10
1194.628494071905
 20
809.7063831875271
 10
1194.628738094329
 20
809.4464690799537
 10
1194.628964125372
 20
809.1095943908175
 10
1194.629167137979
 20
808.7032514046873
 10
1194.629342617033
 20
808.2364774205448
 10
1194.629486659779
 20
807.7196537571172
 10
1194.629596062625
 20
807.1642748664467
 10
1194.62966839239
 20
806.5826926907456
 10
1194.629702040418
 20
805.9878419481798
  0
LWPOLYLINE
  5
1641
330
1570
100
AcDbEntity
  8
leg fin
100
AcDbPolyline
 90
        9
 70
     0
 43
0.0
 10
1198.34821261777
 20
805.986654869061
 10
1198.088300431777
 20
805.9868946702595
 10
1197.751428607975
 20
805.9871167914534
 10
1197.345089271181
 20
805.9873162926047
 10
1196.878319523379
 20
805.9874887367504
 10
1196.361500456022
 20
805.9876302886841
 10
1195.806126271611
 20
805.9877378002511
 10
1195.224548649374
 20
805.9878088803634
 10
1194.629702040418
 20
805.9878419481798
  0
LWPOLYLINE
  5
1642
330
1570
100
AcDbEntity
  8
leg fin
100
AcDbPolyline
 90
        9
 70
     0
 43
0.0
 10
1194.641225340938
 20
154.0888977624731
 10
1195.235214793366
 20
154.0891649998139
 10
1195.815717254324
 20
154.0897319959445
 10
1196.369853551338
 20
154.0905861713486
 10
1196.885329478224
 20
154.0917085750766
 10
1197.350708557415
 20
154.0930743051994
 10
1197.755665772517
 20
154.0946530612882
 10
1198.091216641686
 20
154.096409816666
 10
1198.349916549596
 20
154.0983055955198
  0
LWPOLYLINE
  5
1643
330
1570
100
AcDbEntity
  8
leg fin
100
AcDbPolyline
 90
        9
 70
     0
 43
0.0
 10
342.7304914928586
 20
154.0888176556359
 10
342.1365103300946
 20
154.0890865985161
 10
341.5560180928874
 20
154.0896571469366
 10
341.0018934209743
 20
154.0905166428688
 10
340.4864299706037
 20
154.0916460177741
 10
340.0210636708875
 20
154.0930202156542
 10
339.6161190094522
 20
154.094608748936
 10
339.2805799762177
 20
154.0963763748614
 10
339.0218907470912
 20
154.0982838773716
  0
LWPOLYLINE
  5
1644
330
1570
100
AcDbEntity
  8
leg fin
100
AcDbPolyline
 90
        6
 70
     0
 43
0.0
 10
1194.629702040418
 20
805.9878419481798
 10
1186.62970354706
 20
805.9912713808657
 10
1154.629709350558
 20
806.0049234870161
 10
1026.629732055406
 20
806.0594268107083
 10
897.6578336591542
 20
806.11313935115
 10
768.685906305393
 20
806.1322860724894
  0
LWPOLYLINE
  5
1645
330
1570
100
AcDbEntity
  8
leg fin
100
AcDbPolyline
 90
        5
 70
     0
 43
0.0
 10
768.6865195158084
 20
809.726187254801
 10
768.6864653211091
 20
809.6271425904191
 10
768.6861897408675
 20
808.7872948944882
 10
768.6859945981909
 20
807.5673011878002
 10
768.6859063053912
 20
806.1322860724894
  0
LWPOLYLINE
  5
1646
330
1570
100
AcDbEntity
  8
leg fin
100
AcDbPolyline
 90
        4
 70
     0
 43
0.0
 10
1194.641225340938
 20
154.0888977624731
 10
1194.76106794577
 20
196.5627730873157
 10
1194.808758695819
 20
225.8032559883859
 10
1194.825303816652
 20
255.044081393537
  0
LWPOLYLINE
  5
1647
330
1570
100
AcDbEntity
  8
leg fin
100
AcDbPolyline
 90
        5
 70
     0
 43
0.0
 10
1194.825244274949
 20
255.0440807177761
 10
1196.243474861325
 20
255.0439506470289
 10
1197.445619693877
 20
255.0436715528863
 10
1198.271878988641
 20
255.0432805350233
 10
1198.374601726768
 20
255.0431991822597
  0
LWPOLYLINE
  5
1648
330
1570
100
AcDbEntity
  8
leg fin
100
AcDbPolyline
 90
        4
 70
     0
 43
0.0
 10
342.54684710031
 20
255.0440865429177
 10
342.5625779268707
 20
225.8035220149113
 10
342.6100319889851
 20
196.5629482447366
 10
342.7304914928586
 20
154.0888176556359
  0
LWPOLYLINE
  5
1649
330
1570
100
AcDbEntity
  8
leg fin
100
AcDbPolyline
 90
        5
 70
     0
 43
0.0
 10
342.546847119384
 20
255.0434179010131
 10
341.1285306327959
 20
255.0434058102173
 10
339.9262948942601
 20
255.0433798630602
 10
339.0999665391478
 20
255.0433435089876
 10
338.9972394851925
 20
255.0433359456611
  0
LWPOLYLINE
  5
164A
330
1570
100
AcDbEntity
  8
leg fin
100
AcDbPolyline
 90
        7
 70
     0
 43
0.0
 10
768.6859094316774
 20
806.1322550376894
 10
760.6859104112686
 20
806.1293650714691
 10
728.685914499873
 20
806.1175293143964
 10
600.6859301977906
 20
806.0714717067243
 10
471.7141652783206
 20
806.0294078465517
 10
407.2282825328661
 20
806.0089329432836
 10
342.7424004030677
 20
805.9875291295384
  0
LWPOLYLINE
  5
164B
330
1570
100
AcDbEntity
  8
leg fin
100
AcDbPolyline
 90
        7
 70
     0
 43
0.0
 10
342.7424004030677
 20
805.9875291295384
 10
342.7396800716528
 20
797.9875300842495
 10
342.7288911135733
 20
765.9875337630983
 10
342.6866143002749
 20
637.9875473833635
 10
342.6202264463595
 20
446.5158126345963
 10
342.6106004361268
 20
420.7433492858858
 10
342.5468474627146
 20
255.0440814524936
  0
LWPOLYLINE
  5
164C
330
1570
100
AcDbEntity
  8
leg fin
100
AcDbPolyline
 90
        8
 70
     0
 43
0.0
 10
1194.825244274949
 20
255.0440807177761
 10
1194.822479872404
 20
263.0440798847199
 10
1194.811394241104
 20
295.0440764238756
 10
1194.767034647601
 20
423.0440621676161
 10
1194.702735334442
 20
614.5159552087252
 10
1194.69376478543
 20
640.2980602724879
 10
1194.663369733102
 20
723.1429523552792
 10
1194.629702040418
 20
805.9878419481798
  0
ARC
  5
164D
330
1570
100
AcDbEntity
  8
SANINDUSA
100
AcDbCircle
 10
1265.297655815172
 20
83.43233633116597
 30
0.0
 40
3.999182252930455
100
AcDbArc
 50
269.9970123721192
 51
0.002987627867814
  0
LINE
  5
164E
330
1570
100
AcDbEntity
  8
leg fin
100
AcDbLine
 10
1265.29744728204
 20
79.43315408367244
 30
0.0
 11
1264.755659823129
 21
79.97494154258447
 31
0.0
  0
LINE
  5
164F
330
1570
100
AcDbEntity
  8
leg fin
100
AcDbLine
 10
1268.755050603753
 20
83.97433232321009
 30
0.0
 11
1269.296838062664
 21
83.43254486429804
 31
0.0
  0
ARC
  5
1650
102
{ACAD_REACTORS
330
16DC
102
}
330
1570
100
AcDbEntity
  8
SANINDUSA
100
AcDbCircle
 10
1265.297655815172
 20
876.6558263811539
 30
0.0
 40
3.999182252930633
100
AcDbArc
 50
359.9970123721322
 51
90.00298762788084
  0
LINE
  5
1651
330
1570
100
AcDbEntity
  8
leg fin
100
AcDbLine
 10
1269.296838062664
 20
876.6556178480218
 30
0.0
 11
1268.755050603753
 21
876.1138303891103
 31
0.0
  0
LINE
  5
1652
330
1570
100
AcDbEntity
  8
leg fin
100
AcDbLine
 10
1264.755659823129
 20
880.1132211697359
 30
0.0
 11
1265.29744728204
 21
880.6550086286474
 31
0.0
  0
ARC
  5
1653
330
1570
100
AcDbEntity
  8
SANINDUSA
100
AcDbCircle
 10
272.0741657651838
 20
876.6558263811544
 30
0.0
 40
3.999182252930292
100
AcDbArc
 50
89.99701237211915
 51
180.0029876278678
  0
LINE
  5
1654
330
1570
100
AcDbEntity
  8
leg fin
100
AcDbLine
 10
272.0743742983154
 20
880.6550086286474
 30
0.0
 11
272.6161617572284
 21
880.1132211697359
 31
0.0
  0
LINE
  5
1655
330
1570
100
AcDbEntity
  8
leg fin
100
AcDbLine
 10
268.6167709766019
 20
876.1138303891103
 30
0.0
 11
268.0749835176907
 21
876.6556178480223
 31
0.0
  0
ARC
  5
1656
330
1570
100
AcDbEntity
  8
SANINDUSA
100
AcDbCircle
 10
272.0741657651838
 20
83.43233633116597
 30
0.0
 40
3.999182252930462
100
AcDbArc
 50
179.9970123721192
 51
270.0029876278808
  0
LINE
  5
1657
330
1570
100
AcDbEntity
  8
leg fin
100
AcDbLine
 10
268.0749835176907
 20
83.43254486429804
 30
0.0
 11
268.6167709766019
 21
83.97433232321009
 31
0.0
  0
LINE
  5
1658
330
1570
100
AcDbEntity
  8
leg fin
100
AcDbLine
 10
272.6161617572275
 20
79.97494154258447
 30
0.0
 11
272.0743742983154
 21
79.43315408367244
 31
0.0
  0
LINE
  5
1659
330
1570
100
AcDbEntity
  8
SANINDUSA
100
AcDbLine
 10
1269.296838062664
 20
83.43254486429804
 30
0.0
 11
1269.296838062664
 21
876.6556178480218
 31
0.0
  0
LINE
  5
165A
330
1570
100
AcDbEntity
  8
SANINDUSA
100
AcDbLine
 10
1265.29744728204
 20
880.6550086286474
 30
0.0
 11
272.0743742983154
 21
880.6550086286474
 31
0.0
  0
LINE
  5
165B
330
1570
100
AcDbEntity
  8
SANINDUSA
100
AcDbLine
 10
272.0743742983154
 20
79.43315408367244
 30
0.0
 11
1265.29744728204
 21
79.43315408367244
 31
0.0
  0
LINE
  5
165C
330
1570
100
AcDbEntity
  8
SANINDUSA
100
AcDbLine
 10
268.0749835176907
 20
876.6556178480223
 30
0.0
 11
268.0749835176907
 21
83.43254486429804
 31
0.0
  0
HATCH
  5
165D
330
1570
100
AcDbEntity
  8
hatch
100
AcDbHatch
 10
0.0
 20
0.0
 30
0.0
210
0.0
220
0.0
230
1.0
  2
ANSI31
 70
     0
 71
     0
 91
        1
 92
       33
 93
       40
 72
     1
 10
1665.896318081229
 20
880.6550086286474
 11
1665.896318081229
 21
876.6543993164724
 72
     2
 10
1696.865417281312
 20
876.1139094161581
 40
3.999922275556385
 50
359.4988392011246
 51
448.9989217409762
 73
     1
 72
     1
 10
1696.826547440901
 20
867.3361475343504
 11
1696.865225529508
 21
876.0965830954983
 72
     1
 10
1700.826508455478
 20
867.3184873569008
 11
1700.865186544086
 21
876.0789229180486
 72
     1
 10
1696.827117674853
 20
876.114500201284
 11
1695.733720479616
 21
813.4738168389672
 72
     1
 10
1700.826508455478
 20
876.0446905755348
 11
1699.733111260242
 21
813.4040072132179
 72
     1
 10
1696.827117674853
 20
876.1145002012836
 11
1665.89631808123
 21
876.6543993164724
 72
     1
 10
1696.896927300602
 20
880.1138909819092
 11
1665.896318081229
 21
880.6550086286474
 72
     1
 10
1665.896318081229
 20
83.43376339584848
 11
1665.896318081229
 21
79.43315408367244
 72
     2
 10
1698.530775456683
 20
805.9786537815552
 40
8.000000021541378
 50
110.4654264674588
 51
177.7988378418822
 73
     1
 72
     2
 10
1698.530775456683
 20
805.9786537815552
 40
4.000000021541379
 50
110.4654264674588
 51
177.7988378418822
 73
     1
 72
     2
 10
1695.733719334797
 20
813.4737506873625
 40
3.999999990140478
 50
290.4648086773819
 51
358.9999999616001
 73
     1
 72
     1
 10
1665.89631808123
 20
83.43376339584848
 11
1696.827117674853
 21
83.97366251103676
 72
     1
 10
1665.896318081229
 20
79.43315408367244
 11
1696.896927300602
 21
79.97427173041114
 72
     2
 10
1696.827117674854
 20
83.97366251103676
 40
4.000000000000051
 50
270.9999999999757
 51
361.0000000000018
 73
     1
 72
     1
 10
1696.827117674853
 20
83.97366251103653
 11
1695.738438435895
 21
146.3440543392023
 72
     1
 10
1700.826508455478
 20
84.04347213678557
 11
1699.737829216521
 21
146.4138639649513
 72
     2
 10
1695.738438435897
 20
146.3440543392066
 40
4.000000000002039
 50
1.00000000181277
 51
77.97463396039083
 73
     1
 72
     2
 10
1697.405196170484
 20
154.1684980034833
 40
8.000000000080074
 50
202.0498997754951
 51
257.9746339606572
 73
     1
 72
     2
 10
1697.405196170484
 20
154.1684980034833
 40
4.000000000080074
 50
202.0498997754951
 51
257.9746339606572
 73
     1
 72
     1
 10
1681.399580709642
 20
179.5790563071027
 11
1680.932923222742
 21
192.9423782983381
 72
     1
 10
1685.385323109187
 20
180.0571608246596
 11
1684.872880527926
 21
194.7315963745891
 72
     1
 10
1680.932923222742
 20
192.9423782983381
 11
1669.872880527925
 21
203.3111683247589
 72
     1
 10
1684.872880527926
 20
194.7315963745891
 11
1673.872880527926
 21
205.0440963746214
 72
     1
 10
1669.872880527925
 20
203.3111683247589
 11
1669.872880527925
 21
306.777024424317
 72
     1
 10
1673.872880527926
 20
205.0440963746214
 11
1673.872880527926
 21
305.0440963744336
 72
     1
 10
1669.872880527925
 20
306.777024424317
 11
1680.932923222742
 21
317.1458144505503
 72
     1
 10
1673.872880527926
 20
305.0440963744336
 11
1684.872880527926
 21
315.3565963742781
 72
     1
 10
1680.932923222742
 20
317.1458144505503
 11
1681.38775980111
 21
330.1706299110176
 72
     1
 10
1684.872880527926
 20
315.3565963742781
 11
1685.385323109187
 21
330.0310319242076
 72
     2
 10
1833.348694326892
 20
210.0140672669823
 40
154.9671675587902
 50
191.3263154074228
 51
202.32535432535
 73
     1
 72
     2
 10
1833.348694326892
 20
210.0140672669823
 40
150.9671675587902
 50
191.4503663194278
 51
202.32535432535
 73
     1
 72
     1
 10
1681.38579634135
 20
330.0632419706469
 11
1681.955764344747
 21
449.0292371149662
 72
     1
 10
1681.955764344747
 20
449.0292371149662
 11
1683.673462760323
 21
568.207985942845
 72
     1
 10
1683.673462760323
 20
568.207985942845
 11
1686.532360074701
 21
687.2270978376205
 72
     1
 10
1686.532360074701
 20
687.2270978376205
 11
1690.535987287383
 21
806.2667409569712
 72
     1
 10
1685.385750434468
 20
330.044078126009
 11
1685.955626251265
 21
448.9908317151425
 72
     1
 10
1685.955626251265
 20
448.9908317151425
 11
1687.672770551425
 21
568.1311344565378
 72
     1
 10
1687.672770551425
 20
568.1311344565378
 11
1690.5307453414
 21
687.1118406224232
 72
     1
 10
1690.5307453414
 20
687.1118406224232
 11
1694.533726884894
 21
806.1322860928402
 97
        0
 75
     0
 76
     1
 52
0.0
 41
1.0
 77
     0
 78
     1
 53
45.0
 43
-3523.202201453687
 44
-1648.201122789731
 45
-2.245064030267287
 46
2.245064030267288
 79
     0
 98
        1
 10
-3523.202201453687
 20
-1648.201122789731
1001
ACAD
1010
0.0
1020
0.0
1030
0.0
  0
LWPOLYLINE
  5
165E
330
1570
100
AcDbEntity
  8
SANINDUSA
100
AcDbPolyline
 90
        5
 70
     0
 43
0.0
 10
1685.385750434468
 20
330.044078126009
 10
1685.955626251265
 20
448.9908317151425
 10
1687.672770551425
 20
568.1311344565378
 10
1690.5307453414
 20
687.1118406224232
 10
1694.533726884894
 20
806.1322860928402
  0
LWPOLYLINE
  5
165F
330
1570
100
AcDbEntity
  8
SANINDUSA
100
AcDbPolyline
 90
        5
 70
     0
 43
0.0
 10
1681.38579634135
 20
330.0632419706469
 10
1681.955764344747
 20
449.0292371149662
 10
1683.673462760323
 20
568.207985942845
 10
1686.532360074701
 20
687.2270978376205
 10
1690.535987287383
 20
806.2667409569712
  0
LWPOLYLINE
  5
1660
330
1570
100
AcDbEntity
  8
leg fin
100
AcDbPolyline
 90
        8
 70
     0
 43
0.0
 10
1694.486878394227
 20
255.0440807177761
 10
1694.489263240435
 20
263.0440798847199
 10
1694.499197899896
 20
295.0440764238756
 10
1694.540209030243
 20
423.0440621676161
 10
1694.601244645282
 20
614.5159552087252
 10
1694.609893277016
 20
640.2980602724879
 10
1694.639399894049
 20
723.1429523552792
 10
1694.672852396104
 20
805.9878419481798
  0
LWPOLYLINE
  5
1661
330
1570
100
AcDbEntity
  8
leg fin
100
AcDbPolyline
 90
        4
 70
     0
 43
0.0
 10
1694.661202410969
 20
154.0888977624731
 10
1694.54590937089
 20
196.5627730873157
 10
1694.501994720334
 20
225.8032559883859
 10
1694.486876770309
 20
255.044081393537
  0
ARC
  5
1662
102
{ACAD_REACTORS
330
16CB
102
}
330
1570
100
AcDbEntity
  8
SANINDUSA
100
AcDbCircle
 10
1833.348694326892
 20
210.0140672669823
 30
0.0
 40
150.9671675587902
100
AcDbArc
 50
191.4503663194276
 51
202.3253543253507
  0
ARC
  5
1663
330
1570
100
AcDbEntity
  8
SANINDUSA
100
AcDbCircle
 10
1833.348694326892
 20
210.0140672669823
 30
0.0
 40
154.9671675587902
100
AcDbArc
 50
191.3263154074172
 51
202.3253543253507
  0
LINE
  5
1664
330
1570
100
AcDbEntity
  8
SANINDUSA
100
AcDbLine
 10
1684.872880527926
 20
315.3565963742781
 30
0.0
 11
1685.385323109187
 21
330.0310319242076
 31
0.0
  0
LINE
  5
1665
330
1570
100
AcDbEntity
  8
SANINDUSA
100
AcDbLine
 10
1680.932923222742
 20
317.1458144505503
 30
0.0
 11
1681.38775980111
 21
330.1706299110176
 31
0.0
  0
LINE
  5
1666
330
1570
100
AcDbEntity
  8
SANINDUSA
100
AcDbLine
 10
1673.872880527926
 20
305.0440963744336
 30
0.0
 11
1684.872880527926
 21
315.3565963742781
 31
0.0
  0
LINE
  5
1667
330
1570
100
AcDbEntity
  8
SANINDUSA
100
AcDbLine
 10
1669.872880527925
 20
306.777024424317
 30
0.0
 11
1680.932923222742
 21
317.1458144505503
 31
0.0
  0
LINE
  5
1668
330
1570
100
AcDbEntity
  8
SANINDUSA
100
AcDbLine
 10
1673.872880527926
 20
205.0440963746214
 30
0.0
 11
1673.872880527926
 21
305.0440963744336
 31
0.0
  0
LINE
  5
1669
330
1570
100
AcDbEntity
  8
SANINDUSA
100
AcDbLine
 10
1669.872880527925
 20
203.3111683247589
 30
0.0
 11
1669.872880527925
 21
306.777024424317
 31
0.0
  0
LINE
  5
166A
330
1570
100
AcDbEntity
  8
SANINDUSA
100
AcDbLine
 10
1684.872880527926
 20
194.7315963745891
 30
0.0
 11
1673.872880527926
 21
205.0440963746214
 31
0.0
  0
LINE
  5
166B
330
1570
100
AcDbEntity
  8
SANINDUSA
100
AcDbLine
 10
1680.932923222742
 20
192.9423782983381
 30
0.0
 11
1669.872880527925
 21
203.3111683247589
 31
0.0
  0
LINE
  5
166C
330
1570
100
AcDbEntity
  8
SANINDUSA
100
AcDbLine
 10
1685.385323109187
 20
180.0571608246596
 30
0.0
 11
1684.872880527926
 21
194.7315963745891
 31
0.0
  0
LINE
  5
166D
330
1570
100
AcDbEntity
  8
SANINDUSA
100
AcDbLine
 10
1681.399580709642
 20
179.5790563071027
 30
0.0
 11
1680.932923222742
 21
192.9423782983381
 31
0.0
  0
LINE
  5
166E
330
1570
100
AcDbEntity
  8
leg fin
100
AcDbLine
 10
1685.385323109187
 20
180.0571608246596
 30
0.0
 11
1685.385323109187
 21
180.0441138064011
 31
0.0
  0
ARC
  5
166F
102
{ACAD_REACTORS
330
16CE
102
}
330
1570
100
AcDbEntity
  8
SANINDUSA
100
AcDbCircle
 10
1697.405196170484
 20
154.1684980034833
 30
0.0
 40
4.000000000080074
100
AcDbArc
 50
202.0498997755016
 51
257.974633960658
  0
ARC
  5
1670
330
1570
100
AcDbEntity
  8
SANINDUSA
100
AcDbCircle
 10
1697.405196170484
 20
154.1684980034833
 30
0.0
 40
8.000000000080074
100
AcDbArc
 50
202.0498997755016
 51
257.974633960658
  0
ARC
  5
1671
102
{ACAD_REACTORS
330
16D1
102
}
330
1570
100
AcDbEntity
  8
SANINDUSA
100
AcDbCircle
 10
1695.738438435897
 20
146.3440543392066
 30
0.0
 40
4.000000000002039
100
AcDbArc
 50
1.00000000181277
 51
77.97463396038953
  0
LINE
  5
1672
330
1570
100
AcDbEntity
  8
SANINDUSA
100
AcDbLine
 10
1700.826508455478
 20
84.04347213678557
 30
0.0
 11
1699.737829216521
 21
146.4138639649513
 31
0.0
  0
LINE
  5
1673
330
1570
100
AcDbEntity
  8
SANINDUSA
100
AcDbLine
 10
1696.827117674853
 20
83.97366251103653
 30
0.0
 11
1695.738438435895
 21
146.3440543392023
 31
0.0
  0
ARC
  5
1674
330
1570
100
AcDbEntity
  8
SANINDUSA
100
AcDbCircle
 10
1696.827117674854
 20
83.97366251103676
 30
0.0
 40
4.000000000000051
100
AcDbArc
 50
270.9999999999757
 51
1.000000000001761
  0
LINE
  5
1675
330
1570
100
AcDbEntity
  8
SANINDUSA
100
AcDbLine
 10
1665.896318081229
 20
79.43315408367244
 30
0.0
 11
1696.896927300602
 21
79.97427173041114
 31
0.0
  0
LINE
  5
1676
330
1570
100
AcDbEntity
  8
SANINDUSA
100
AcDbLine
 10
1665.89631808123
 20
83.43376339584848
 30
0.0
 11
1696.827117674853
 21
83.97366251103676
 31
0.0
  0
LINE
  5
1677
330
1570
100
AcDbEntity
  8
leg fin
100
AcDbLine
 10
1665.896318081229
 20
880.6550086286474
 30
0.0
 11
1665.896318081229
 21
79.43315408367244
 31
0.0
  0
LINE
  5
1678
330
1570
100
AcDbEntity
  8
SANINDUSA
100
AcDbLine
 10
1696.896927300602
 20
880.1138909819092
 30
0.0
 11
1665.896318081229
 21
880.6550086286474
 31
0.0
  0
LINE
  5
1679
330
1570
100
AcDbEntity
  8
SANINDUSA
100
AcDbLine
 10
1696.827117674853
 20
876.1145002012836
 30
0.0
 11
1665.89631808123
 21
876.6543993164724
 31
0.0
  0
ARC
  5
167A
330
1570
100
AcDbEntity
  8
leg fin
100
AcDbCircle
 10
1696.827117674854
 20
876.1145002012836
 30
0.0
 40
4.00000000000005
100
AcDbArc
 50
358.9999999999982
 51
89.0000000000243
  0
LINE
  5
167B
102
{ACAD_REACTORS
330
16D4
102
}
330
1570
100
AcDbEntity
  8
SANINDUSA
100
AcDbLine
 10
1700.826508455478
 20
876.0446905755348
 30
0.0
 11
1699.733111260242
 21
813.4040072132179
 31
0.0
  0
LINE
  5
167C
330
1570
100
AcDbEntity
  8
SANINDUSA
100
AcDbLine
 10
1696.827117674853
 20
876.114500201284
 30
0.0
 11
1695.733720479616
 21
813.4738168389672
 31
0.0
  0
ARC
  5
167D
330
1570
100
AcDbEntity
  8
SANINDUSA
100
AcDbCircle
 10
1695.733719334797
 20
813.4737506873625
 30
0.0
 40
3.999999990140478
100
AcDbArc
 50
290.4648086773803
 51
358.9999999616001
  0
ARC
  5
167E
330
1570
100
AcDbEntity
  8
SANINDUSA
100
AcDbCircle
 10
1698.530775456683
 20
805.9786537815552
 30
0.0
 40
4.000000021541379
100
AcDbArc
 50
110.4654264674595
 51
177.7988378418822
  0
ARC
  5
167F
330
1570
100
AcDbEntity
  8
SANINDUSA
100
AcDbCircle
 10
1698.530775456683
 20
805.9786537815552
 30
0.0
 40
8.000000021541378
100
AcDbArc
 50
110.4654264674595
 51
177.7988378418822
  0
LINE
  5
1680
330
1570
100
AcDbEntity
  8
leg fin
100
AcDbLine
 10
1685.385323109187
 20
330.0440813561599
 30
0.0
 11
1685.385323109187
 21
330.0310319242076
 31
0.0
  0
LINE
  5
1681
330
1570
100
AcDbEntity
  8
leg fin
100
AcDbLine
 10
1697.203331098773
 20
809.7063831875271
 30
0.0
 11
1697.202572949807
 21
809.7062894312502
 31
0.0
  0
ARC
  5
1682
330
1570
100
AcDbEntity
  8
leg fin
100
AcDbCircle
 10
1698.672851957153
 20
805.9860998690101
 30
0.0
 40
3.999999940405425
100
AcDbArc
 50
111.5541391225792
 51
179.9750465528407
  0
LINE
  5
1683
330
1570
100
AcDbEntity
  8
leg fin
100
AcDbLine
 10
1684.872880527926
 20
315.3565963742781
 30
0.0
 11
1684.872880527926
 21
194.7315963745891
 31
0.0
  0
LINE
  5
1684
330
1570
100
AcDbEntity
  8
leg fin
100
AcDbLine
 10
1685.385323109187
 20
180.0571608246596
 30
0.0
 11
1685.385323109187
 21
330.0310319242076
 31
0.0
  0
ARC
  5
1685
330
1570
100
AcDbEntity
  8
leg fin
100
AcDbCircle
 10
1698.661174907354
 20
154.1026665164927
 30
0.0
 40
3.999996193801843
100
AcDbArc
 50
180.1972234507485
 51
248.5361479529025
  0
LINE
  5
1686
330
1570
100
AcDbEntity
  8
leg fin
100
AcDbLine
 10
1697.19471112999
 20
150.3795713931918
 30
0.0
 11
1697.197519689541
 21
150.3800756238743
 31
0.0
  0
ARC
  5
1687
330
1570
100
AcDbEntity
  8
leg fin
100
AcDbCircle
 10
1696.098539920703
 20
154.2823914409187
 30
0.0
 40
4.053837150775565
100
AcDbArc
 50
276.7044573388126
 51
285.6882708589815
  0
ARC
  5
1688
330
1570
100
AcDbEntity
  8
leg fin
100
AcDbCircle
 10
1695.732992418115
 20
146.6562186340829
 30
0.0
 40
3.999997170175614
100
AcDbArc
 50
1.000010391083026
 51
68.56595587958176
  0
LINE
  5
1689
330
1570
100
AcDbEntity
  8
leg fin
100
AcDbLine
 10
1699.732380356685
 20
146.7260289357682
 30
0.0
 11
1699.737829216521
 21
146.4138639649513
 31
0.0
  0
LINE
  5
168A
330
1570
100
AcDbEntity
  8
leg fin
100
AcDbLine
 10
1700.865186544086
 20
876.0789229180486
 30
0.0
 11
1700.826508455478
 21
876.0446905755348
 31
0.0
  0
LINE
  5
168B
330
1570
100
AcDbEntity
  8
SANINDUSA
100
AcDbLine
 10
1700.826508455478
 20
867.3184873569008
 30
0.0
 11
1700.865186544086
 21
876.0789229180486
 31
0.0
  0
LINE
  5
168C
330
1570
100
AcDbEntity
  8
leg fin
100
AcDbLine
 10
1700.826508455478
 20
867.3184873569008
 30
0.0
 11
1699.732285465206
 21
804.630494228677
 31
0.0
  0
LINE
  5
168D
330
1570
100
AcDbEntity
  8
leg fin
100
AcDbLine
 10
1699.733288031509
 20
805.9818261056843
 30
0.0
 11
1699.732285465206
 21
804.6304942286765
 31
0.0
  0
LWPOLYLINE
  5
168E
330
1570
100
AcDbEntity
  8
leg fin
100
AcDbPolyline
 90
       10
 70
     0
 43
0.0
 10
1699.733288059078
 20
813.3622395135239
 10
1699.7341502762
 20
813.305671528988
 10
1699.734209826595
 20
813.054111745706
 10
1699.733674433811
 20
812.5918150854245
 10
1699.733039352833
 20
811.7576407343157
 10
1699.732961909788
 20
810.9150713524154
 10
1699.733340474844
 20
809.9050526507717
 10
1699.733931605349
 20
808.8123297744123
 10
1699.734292341954
 20
807.6062824202532
 10
1699.733288031509
 20
805.9818261056843
  0
ARC
  5
168F
330
1570
100
AcDbEntity
  8
leg fin
100
AcDbCircle
 10
1695.733878365435
 20
146.6574722424711
 30
0.0
 40
4.000002732607566
100
AcDbArc
 50
22.14128587135529
 51
68.53639862150105
  0
LINE
  5
1690
330
1570
100
AcDbEntity
  8
leg fin
100
AcDbLine
 10
1699.733362546236
 20
146.7218902343634
 30
0.0
 11
1699.732380356685
 21
146.7260289357678
 31
0.0
  0
LINE
  5
1691
330
1570
100
AcDbEntity
  8
leg fin
100
AcDbLine
 10
1699.732379881779
 20
155.4522593618444
 30
0.0
 11
1699.733362430176
 21
154.0993309836508
 31
0.0
  0
LINE
  5
1692
330
1570
100
AcDbEntity
  8
leg fin
100
AcDbLine
 10
1700.865186544086
 20
84.00923979427171
 30
0.0
 11
1700.826508455478
 21
92.76967535542416
 31
0.0
  0
LINE
  5
1693
330
1570
100
AcDbEntity
  8
leg fin
100
AcDbLine
 10
1700.826508455478
 20
84.04347213678557
 30
0.0
 11
1700.865186544086
 21
84.00923979427171
 31
0.0
  0
LWPOLYLINE
  5
1694
330
1570
100
AcDbEntity
  8
leg fin
100
AcDbPolyline
 90
       10
 70
     0
 43
0.0
 10
1699.733362430176
 20
154.0993309836508
 10
1699.73421013837
 20
153.1615473413362
 10
1699.734264642762
 20
151.963714194329
 10
1699.733724725634
 20
150.7921632483153
 10
1699.733086270758
 20
149.4834911182351
 10
1699.733008462799
 20
148.5919368508789
 10
1699.733388867703
 20
147.8341469697375
 10
1699.733983632095
 20
147.2739882680648
 10
1699.734349337684
 20
146.8958298761067
 10
1699.733362546236
 20
146.7218902343634
  0
LWPOLYLINE
  5
1695
330
1570
100
AcDbEntity
  8
leg fin
100
AcDbPolyline
 90
        9
 70
     0
 43
0.0
 10
1697.203331085563
 20
805.986654869061
 10
1697.733477840263
 20
805.9858393757336
 10
1698.220308407524
 20
805.9850535729301
 10
1698.653277210994
 20
805.9843144824727
 10
1699.02300541155
 20
805.9836381143155
 10
1699.321484068853
 20
805.9830391197406
 10
1699.542247628609
 20
805.9825304739865
 10
1699.68051397742
 20
805.9821231951845
 10
1699.733288031509
 20
805.9818261056843
  0
LWPOLYLINE
  5
1696
330
1570
100
AcDbEntity
  8
leg fin
100
AcDbPolyline
 90
        7
 70
     0
 43
0.0
 10
1697.203331085563
 20
805.986654869061
 10
1697.203786622385
 20
806.8024799375711
 10
1697.203259375021
 20
807.9583384972679
 10
1697.2031004795
 20
808.891634412415
 10
1697.203437093308
 20
809.3130054601537
 10
1697.203734650365
 20
809.6760965999296
 10
1697.203331098773
 20
809.7063831875271
  0
LWPOLYLINE
  5
1697
330
1570
100
AcDbEntity
  8
leg fin
100
AcDbPolyline
 90
        7
 70
     0
 43
0.0
 10
1697.197519689541
 20
150.3800756238747
 10
1697.197966634439
 20
150.4706285023462
 10
1697.197435021791
 20
150.9462636403941
 10
1697.19727537868
 20
151.7779418122714
 10
1697.197613703586
 20
152.4365647807567
 10
1697.197916121725
 20
153.6274247156639
 10
1697.197519633945
 20
154.0983055955194
  0
LWPOLYLINE
  5
1698
330
1570
100
AcDbEntity
  8
leg fin
100
AcDbPolyline
 90
        9
 70
     0
 43
0.0
 10
1697.197519633945
 20
154.0983055955198
 10
1697.728756746959
 20
154.0988512483068
 10
1698.216665580513
 20
154.0992901248069
 10
1698.650648837874
 20
154.0996126926975
 10
1699.021280476635
 20
154.0998119458586
 10
1699.32051044074
 20
154.0998835565451
 10
1699.541839506355
 20
154.099825969386
 10
1699.680460443885
 20
154.099640435164
 10
1699.733362430176
 20
154.0993309836508
  0
LWPOLYLINE
  5
1699
330
1570
100
AcDbEntity
  8
leg fin
100
AcDbPolyline
 90
        9
 70
     0
 43
0.0
 10
1697.203331085563
 20
805.986654869061
 10
1696.666404524746
 20
805.9868946702595
 10
1696.174101915947
 20
805.9871167914534
 10
1695.737372208675
 20
805.9873162926047
 10
1695.365928395372
 20
805.9874887367504
 10
1695.068031491695
 20
805.9876302886841
 10
1694.85030680919
 20
805.9877378002511
 10
1694.717596606487
 20
805.9878088803634
 10
1694.672852396104
 20
805.9878419481798
  0
LWPOLYLINE
  5
169A
330
1570
100
AcDbEntity
  8
leg fin
100
AcDbPolyline
 90
        9
 70
     0
 43
0.0
 10
1694.661202410969
 20
154.0888977624731
 10
1694.707640027036
 20
154.0891649998139
 10
1694.841791301843
 20
154.0897319959445
 10
1695.060679921721
 20
154.0905861713486
 10
1695.359449569123
 20
154.0917085750766
 10
1695.731471666082
 20
154.0930743051994
 10
1696.168492437513
 20
154.0946530612882
 10
1696.660816031513
 20
154.096409816666
 10
1697.197519633945
 20
154.0983055955198
  0
LWPOLYLINE
  5
169B
330
1570
100
AcDbEntity
  8
leg fin
100
AcDbPolyline
 90
        5
 70
     0
 43
0.0
 10
1697.194750971581
 20
155.4565538903721
 10
1697.181827352434
 20
163.4565425963424
 10
1697.139716275722
 20
195.4565136852266
 10
1697.110286871449
 20
239.0440067824197
 10
1697.107744930939
 20
255.0431108852995
  0
LINE
  5
169C
330
1570
100
AcDbEntity
  8
leg fin
100
AcDbLine
 10
1697.197519633945
 20
154.0983055955198
 30
0.0
 11
1697.194750971581
 21
155.4565538903721
 31
0.0
  0
LINE
  5
169D
330
1570
100
AcDbEntity
  8
leg fin
100
AcDbLine
 10
1697.20257805695
 20
804.6299404049937
 30
0.0
 11
1697.203331085563
 21
805.986654869061
 31
0.0
  0
LWPOLYLINE
  5
169E
330
1570
100
AcDbEntity
  8
leg fin
100
AcDbPolyline
 90
        8
 70
     0
 43
0.0
 10
1697.107747217092
 20
255.0431991822606
 10
1697.109007325879
 20
263.0431990760822
 10
1697.114234890699
 20
295.0431986193393
 10
1697.135608699847
 20
423.043196705018
 10
1697.156260724555
 20
550.2387782395285
 10
1697.166781756886
 20
613.8365689701727
 10
1697.177778889553
 20
677.434359615198
 10
1697.20257805695
 20
804.6299404049937
  0
LWPOLYLINE
  5
169F
330
1570
100
AcDbEntity
  8
leg fin
100
AcDbPolyline
 90
        9
 70
     0
 43
0.0
 10
1697.20257805695
 20
804.6299404049937
 10
1697.732112369982
 20
804.6299801154569
 10
1698.218442126713
 20
804.6300309362832
 10
1698.651057385429
 20
804.6300917691969
 10
1699.020609013996
 20
804.6301612995543
 10
1699.31911073145
 20
804.6302380247535
 10
1699.540111697367
 20
804.6303202867065
 10
1699.678835919248
 20
804.6304063076732
 10
1699.732285465206
 20
804.630494228677
  0
LWPOLYLINE
  5
16A0
330
1570
100
AcDbEntity
  8
leg fin
100
AcDbPolyline
 90
        6
 70
     0
 43
0.0
 10
1699.732285465206
 20
804.630494228677
 10
1699.732326657032
 20
788.6304944027155
 10
1699.732479551543
 20
724.630495000124
 10
1699.732987294193
 20
468.6304966212137
 10
1699.733084959179
 20
416.0449263955565
 10
1699.733384542092
 20
255.0435687935082
  0
LWPOLYLINE
  5
16A1
330
1570
100
AcDbEntity
  8
leg fin
100
AcDbPolyline
 90
        9
 70
     0
 43
0.0
 10
1699.733384567852
 20
255.0435687935428
 10
1699.733377859252
 20
247.0435687824879
 10
1699.733356398291
 20
239.0435687518488
 10
1699.733242567109
 20
217.7102362806954
 10
1699.733151179012
 20
207.0435704269026
 10
1699.733036165345
 20
196.3769060541558
 10
1699.73273535524
 20
175.0435744344072
 10
1699.732567226726
 20
165.2479163857556
 10
1699.732379881779
 20
155.4522593618444
  0
LINE
  5
16A2
330
1570
100
AcDbEntity
  8
leg fin
100
AcDbLine
 10
1699.732379881779
 20
155.4522593618439
 30
0.0
 11
1697.194750971581
 21
155.4565538903721
 31
0.0
  0
LINE
  5
16A3
102
{ACAD_REACTORS
330
16D4
102
}
330
1570
100
AcDbEntity
  8
leg fin
100
AcDbLine
 10
1700.826508455478
 20
92.76967535542416
 30
0.0
 11
1700.826508455478
 21
867.3184873569008
 31
0.0
  0
ARC
  5
16A4
102
{ACAD_REACTORS
330
16D7
102
}
330
1570
100
AcDbEntity
  8
SANINDUSA
100
AcDbCircle
 10
1696.865417281312
 20
876.1139094161581
 30
0.0
 40
3.999922275556385
100
AcDbArc
 50
359.4988392011246
 51
88.99892174097631
  0
LINE
  5
16A5
330
1570
100
AcDbEntity
  8
leg fin
100
AcDbLine
 10
1696.896927300602
 20
880.1138909819092
 30
0.0
 11
1696.93530081432
 21
880.1132211697359
 31
0.0
  0
ARC
  5
16A6
330
1570
100
AcDbEntity
  8
leg fin
100
AcDbCircle
 10
1696.865417281312
 20
83.97425329616226
 30
0.0
 40
3.999922275556384
100
AcDbArc
 50
271.0010782590237
 51
0.5011607988623414
  0
LINE
  5
16A7
330
1570
100
AcDbEntity
  8
leg fin
100
AcDbLine
 10
1696.93530081432
 20
79.97494154258447
 30
0.0
 11
1696.896927300602
 21
79.97427173041114
 31
0.0
  0
LINE
  5
16A8
330
1570
100
AcDbEntity
  8
leg fin
100
AcDbLine
 10
1685.385323109183
 20
255.0441197654777
 30
0.0
 11
1685.385323109187
 21
329.8560219242077
 31
0.0
  0
ARC
  5
16A9
330
1570
100
AcDbEntity
  8
leg fin
100
AcDbCircle
 10
1697.552581331192
 20
808.8993845839805
 30
0.0
 40
4.095109187758576
100
AcDbArc
 50
222.8736281106673
 51
225.314744771333
  0
ARC
  5
16AA
330
1570
100
AcDbEntity
  8
leg fin
100
AcDbCircle
 10
1697.080613793752
 20
151.419874115355
 30
0.0
 40
3.602393463798702
100
AcDbArc
 50
132.1916170815555
 51
157.1214395363019
  0
ARC
  5
16AB
330
1570
100
AcDbEntity
  8
leg fin
100
AcDbCircle
 10
1695.73387770703
 20
146.6574715782931
 30
0.0
 40
4.000003592782571
100
AcDbArc
 50
0.9227683409873037
 51
22.14129112900367
  0
LINE
  5
16AC
330
1570
100
AcDbEntity
  8
leg fin
100
AcDbLine
 10
1699.732379881779
 20
155.4522593618439
 30
0.0
 11
1699.883341109207
 21
146.8036964347029
 31
0.0
  0
LINE
  5
16AD
330
1570
100
AcDbEntity
  8
leg fin
100
AcDbLine
 10
1699.891408564451
 20
146.3415122332421
 30
0.0
 11
1700.826508455478
 21
92.76967535542416
 31
0.0
  0
LINE
  5
16AE
330
1570
100
AcDbEntity
  8
SANINDUSA
100
AcDbLine
 10
1665.896318081229
 20
880.6550086286474
 30
0.0
 11
1665.896318081229
 21
876.6543993164724
 31
0.0
  0
LINE
  5
16AF
330
1570
100
AcDbEntity
  8
SANINDUSA
100
AcDbLine
 10
1665.896318081229
 20
83.43376339584848
 30
0.0
 11
1665.896318081229
 21
79.43315408367244
 31
0.0
  0
LINE
  5
16B0
330
1570
100
AcDbEntity
  8
SANINDUSA
100
AcDbLine
 10
97.4300159099662
 20
880.6550086232105
 30
0.0
 11
66.39103317687204
 21
880.1132211642984
 31
0.0
  0
LINE
  5
16B1
330
1570
100
AcDbEntity
  8
cotas
100
AcDbLine
 10
64.8827959235964
 20
880.0868947851149
 30
0.0
 11
62.44363987613315
 21
880.0443191579365
 31
0.0
  0
ARC
  5
16B2
330
1570
100
AcDbEntity
  8
leg fin
100
AcDbCircle
 10
123.7012006541995
 20
878.1135257739856
 30
0.0
 40
57.34504405729745
100
AcDbArc
 50
178.0016173803205
 51
181.9983826196794
  0
LINE
  5
16B3
330
1570
100
AcDbEntity
  8
leg fin
100
AcDbLine
 10
66.39103317687158
 20
876.1138303836728
 30
0.0
 11
97.43001590996573
 21
876.6556178425849
 31
0.0
  0
LINE
  5
16B4
330
1570
100
AcDbEntity
  8
SANINDUSA
100
AcDbLine
 10
97.43001590996573
 20
876.6556178425849
 30
0.0
 11
97.4300159099662
 21
880.6550086232105
 31
0.0
  0
LINE
  5
16B5
330
1570
100
AcDbEntity
  8
leg fin
100
AcDbLine
 10
97.43001590996573
 20
83.43254485886109
 30
0.0
 11
66.39103317687204
 21
83.97433231777313
 31
0.0
  0
ARC
  5
16B6
330
1570
100
AcDbEntity
  8
leg fin
100
AcDbCircle
 10
123.7012006539603
 20
81.97463692745714
 30
0.0
 40
57.34504405705829
100
AcDbArc
 50
178.0016173803075
 51
181.9983826196925
  0
LINE
  5
16B7
330
1570
100
AcDbEntity
  8
cotas
100
AcDbLine
 10
62.44363987613269
 20
80.04384354350941
 30
0.0
 11
64.13592095183776
 21
80.01430466745592
 31
0.0
  0
LINE
  5
16B8
330
1570
100
AcDbEntity
  8
SANINDUSA
100
AcDbLine
 10
66.39103317687204
 20
79.97494153714774
 30
0.0
 11
97.4300159099662
 21
79.43315407823547
 31
0.0
  0
LINE
  5
16B9
330
1570
100
AcDbEntity
  8
SANINDUSA
100
AcDbLine
 10
97.4300159099662
 20
79.43315407823547
 30
0.0
 11
97.43001590996573
 21
83.43254485886109
 31
0.0
  0
LINE
  5
16BA
330
1570
100
AcDbEntity
  8
leg fin
100
AcDbLine
 10
66.39103317687158
 20
83.97433231777313
 30
0.0
 11
66.42940669059135
 21
92.76967534999494
 31
0.0
  0
LINE
  5
16BB
330
1570
100
AcDbEntity
  8
leg fin
100
AcDbLine
 10
66.42940669059135
 20
867.3184873514561
 30
0.0
 11
66.39103317687158
 21
876.1138303836728
 31
0.0
  0
LINE
  5
16BC
330
1570
100
AcDbEntity
  8
leg fin
100
AcDbLine
 10
66.42940669059135
 20
92.76967534999494
 30
0.0
 11
66.42940669059135
 21
867.3184873514561
 31
0.0
  0
LINE
  5
16BD
330
1570
100
AcDbEntity
  8
SANINDUSA
100
AcDbLine
 10
97.43001590996573
 20
876.6556178425849
 30
0.0
 11
97.43001590996573
 21
83.43254485886109
 31
0.0
  0
LWPOLYLINE
  5
16BE
330
1570
100
AcDbEntity
  8
leg fin
100
AcDbPolyline
 90
        9
 70
     0
 43
0.0
 10
66.39103317687158
 20
876.1138303836728
 10
65.61642565677903
 20
876.1070573623261
 10
64.87391023870668
 20
876.1005417498832
 10
64.19170624608478
 20
876.0945311724141
 10
63.59574086459224
 20
876.0892540621176
 10
63.10866377858975
 20
876.0849109757486
 10
62.7489863691103
 20
876.0816669724503
 10
62.53037818819348
 20
876.079645340676
 10
62.46114744710621
 20
876.0789229126116
  0
LINE
  5
16BF
330
1570
100
AcDbEntity
  8
cotas
100
AcDbLine
 10
62.44363987613315
 20
880.0443191579365
 30
0.0
 11
62.45404385559687
 21
877.6878585636341
 31
0.0
  0
LINE
  5
16C0
330
1570
100
AcDbEntity
  8
SANINDUSA
100
AcDbLine
 10
62.4609944481731
 20
876.1135765715438
 30
0.0
 11
62.49982553571499
 21
867.3184873514561
 31
0.0
  0
LINE
  5
16C1
330
1570
100
AcDbEntity
  8
leg fin
100
AcDbLine
 10
66.42940669059135
 20
867.3184873514561
 30
0.0
 11
62.49982553571499
 21
867.3184873514561
 31
0.0
  0
LINE
  5
16C2
330
1570
100
AcDbEntity
  8
leg fin
100
AcDbLine
 10
66.42940669059135
 20
92.76967534999494
 30
0.0
 11
62.49982553571499
 21
92.76967534999494
 31
0.0
  0
LINE
  5
16C3
330
1570
100
AcDbEntity
  8
SANINDUSA
100
AcDbLine
 10
62.49982553571499
 20
92.76967534999494
 30
0.0
 11
62.4609944481731
 21
83.97458612977334
 31
0.0
  0
LINE
  5
16C4
330
1570
100
AcDbEntity
  8
cotas
100
AcDbLine
 10
62.45227796077188
 20
82.0003358773747
 30
0.0
 11
62.44363987613269
 21
80.04384354350941
 31
0.0
  0
LWPOLYLINE
  5
16C5
330
1570
100
AcDbEntity
  8
leg fin
100
AcDbPolyline
 90
        9
 70
     0
 43
0.0
 10
66.39103317687204
 20
83.97433231777313
 10
65.61642565677948
 20
83.98110533912017
 10
64.87391023870668
 20
83.98762095156326
 10
64.19170624608523
 20
83.99363152903243
 10
63.59574086459224
 20
83.99890863932865
 10
63.1086637785902
 20
84.00325172569774
 10
62.7489863691103
 20
84.00649572899624
 10
62.53037818819348
 20
84.00851736076971
 10
62.46114744710621
 20
84.00923978883497
  0
LINE
  5
16C6
330
1570
100
AcDbEntity
  8
SANINDUSA
100
AcDbLine
 10
62.49982553571499
 20
867.3184873514561
 30
0.0
 11
62.49982553571499
 21
92.76967534999494
 31
0.0
  0
ARC
  5
16C7
330
1570
100
AcDbEntity
  8
SANINDUSA
100
AcDbCircle
 10
66.46091670988062
 20
83.97425329072461
 30
0.0
 40
3.999922275555718
100
AcDbArc
 50
179.4988392011246
 51
268.9989217410284
  0
ARC
  5
16C8
330
1570
100
AcDbEntity
  8
SANINDUSA
100
AcDbCircle
 10
66.46091670988107
 20
876.1139094107216
 30
0.0
 40
3.999922275556159
100
AcDbArc
 50
91.00107825897159
 51
180.5011607988753
  0
DIMENSION
  5
16C9
102
{ACAD_XDICTIONARY
360
16CA
102
}
102
{ACAD_REACTORS
330
16CB
102
}
330
1570
100
AcDbEntity
  8
cotas
100
AcDbDimension
  2
*D39
 10
1833.348694326892
 20
210.0140672669823
 30
0.0
 11
1759.360303570422
 21
191.4048553089403
 31
0.0
 12
-3523.202201453688
 22
-1648.201122789731
 32
0.0
 70
   132
 71
     5
 42
150.9671675587933
  3
SANINDUSA
100
AcDbRadialDimension
 15
1686.941377868514
 25
173.1903878177327
 35
0.0
 40
0.0
1001
ACAD
1000
DSTYLE
1002
{
1070
   288
1070
     1
1002
}
  0
DIMENSION
  5
16CC
102
{ACAD_XDICTIONARY
360
16CD
102
}
102
{ACAD_REACTORS
330
16CE
102
}
330
1570
100
AcDbEntity
  8
cotas
100
AcDbDimension
  2
*D40
 10
1697.405196170484
 20
154.1684980034833
 30
0.0
 11
1634.626429632259
 21
128.7406075078011
 31
0.0
 12
-3523.202201453686
 22
-1648.201122789734
 32
0.0
 70
   132
 71
     5
 42
4.000000000081854
  3
SANINDUSA
100
AcDbRadialDimension
 15
1693.697767161075
 25
152.6668422037573
 35
0.0
 40
0.0
1001
ACAD
1000
DSTYLE
1002
{
1070
   279
1070
     1
1070
   288
1070
     1
1002
}
  0
DIMENSION
  5
16CF
102
{ACAD_XDICTIONARY
360
16D0
102
}
102
{ACAD_REACTORS
330
16D1
102
}
330
1570
100
AcDbEntity
  8
cotas
100
AcDbDimension
  2
*D41
 10
1695.738438435897
 20
146.3440543392066
 30
0.0
 11
1730.276609501036
 21
163.9999369725788
 31
0.0
 12
-3523.202201453694
 22
-1648.201122789733
 32
0.0
 70
   132
 71
     5
 42
3.999999999993633
  3
SANINDUSA
100
AcDbRadialDimension
 15
1699.300050130922
 25
148.1647471012643
 35
0.0
 40
0.0
1001
ACAD
1000
DSTYLE
1002
{
1070
   288
1070
     1
1002
}
  0
DIMENSION
  5
16D2
102
{ACAD_XDICTIONARY
360
16D3
102
}
102
{ACAD_REACTORS
330
16D4
102
}
330
1570
100
AcDbEntity
  8
cotas
100
AcDbDimension
  2
*D42
 10
1699.733111260242
 20
813.4040072132179
 30
0.0
 11
1737.76352827429
 21
846.5967024850783
 31
0.0
 12
-3523.202201453687
 22
-1648.201122789731
 32
0.0
 70
   130
 71
     5
 42
0.0174532925199404
  3
SANINDUSA
100
AcDb2LineAngularDimension
 13
1700.826508455478
 23
92.76967535542416
 33
0.0
 14
1700.826508455478
 24
867.3184873569008
 34
0.0
 15
1700.826508455478
 25
876.0446905755348
 35
0.0
 16
1700.276869602921
 26
828.8088426123286
 36
0.0
  0
DIMENSION
  5
16D5
102
{ACAD_XDICTIONARY
360
16D6
102
}
102
{ACAD_REACTORS
330
16D7
102
}
330
1570
100
AcDbEntity
  8
cotas
100
AcDbDimension
  2
*D43
 10
1696.865417281312
 20
876.1139094161581
 30
0.0
 11
1721.100709587691
 21
905.9928295314257
 31
0.0
 12
-3523.202201453685
 22
-1648.201122789734
 32
0.0
 70
     4
 71
     5
 42
3.999922275555036
  3
SANINDUSA
100
AcDbRadialDimension
 15
1700.1060092112
 25
878.4586785208734
 35
0.0
 40
0.0
1001
ACAD
1000
DSTYLE
1002
{
1070
   288
1070
     1
1002
}
  0
LEADER
  5
16D8
330
1570
100
AcDbEntity
  8
cotas
100
AcDbLeader
  3
SANINDUSA
 76
     2
 10
1687.557279399574
 20
560.1180334060204
 30
0.0
 10
1725.001704475617
 20
602.8700855320498
 30
0.0
1001
ACAD
1000
DSTYLE
1002
{
1070
   147
1040
1.0
1070
    77
1070
     0
1002
}
  0
MTEXT
  5
16D9
330
1570
100
AcDbEntity
  8
cotas
100
AcDbMText
 10
1717.796123805191
 20
618.0953133868629
 30
0.0
 40
10.0
 41
21.93592118279594
 71
     1
 72
     5
  1
R12392
  7
SANINDUSA
 73
     1
 44
1.0
1001
ACAD
1000
MTEXTBEGIN
1070
    73
1070
     1
1070
    44
1040
1.0
1070
    74
1070
     0
1000
MTEXTEND
  0
DIMENSION
  5
16DA
102
{ACAD_XDICTIONARY
360
16DB
102
}
102
{ACAD_REACTORS
330
16DC
102
}
330
1570
100
AcDbEntity
  8
cotas
100
AcDbDimension
  2
*D44
 10
1265.297655815172
 20
876.6558263811539
 30
0.0
 11
1297.156504540527
 21
907.9399573656697
 31
0.0
 12
-3523.202201453684
 22
-1648.201122789729
 32
0.0
 70
   132
 71
     5
 42
3.999182252934588
  3
SANINDUSA
100
AcDbRadialDimension
 15
1268.151125159963
 25
879.4578205621833
 35
0.0
 40
0.0
1001
ACAD
1000
DSTYLE
1002
{
1070
   288
1070
     1
1002
}
  0
DIMENSION
  5
16DD
330
1570
100
AcDbEntity
  8
cotas
100
AcDbDimension
  2
*D45
 10
1340.999297251954
 20
255.0440963744334
 30
0.0
 11
1330.878410750947
 21
167.5439699589722
 31
0.0
 12
-3523.202201453687
 22
-1648.201122789731
 32
0.0
 71
     5
 42
175.0002528309239
  3
SANINDUSA
100
AcDbAlignedDimension
 13
1268.686285582916
 23
80.04384354350941
 33
0.0
 14
866.4851885686035
 24
255.0440963744336
 34
0.0
 50
90.0
100
AcDbRotatedDimension
  0
ENDBLK
  5
16E1
330
1570
100
AcDbEntity
  8
0
100
AcDbBlockEnd
  0
ENDSEC
  0
SECTION
  2
ENTITIES
  0
CIRCLE
  5
12B9
330
1F
100
AcDbEntity
  8
SANINDUSA
100
AcDbCircle
 10
4960.674354791734
 20
2381.584941015455
 30
0.0
 40
0.0603125
  0
CIRCLE
  5
12BA
330
1F
100
AcDbEntity
  8
SANINDUSA
100
AcDbCircle
 10
4960.674354791734
 20
2381.584941015455
 30
0.0
 40
0.05
  0
LINE
  5
12C0
330
1F
100
AcDbEntity
  8
SANINDUSA
100
AcDbLine
 10
4961.309486239041
 20
2381.803761200409
 30
0.0
 11
4962.302709312026
 21
2381.803761200409
 31
0.0
  0
LINE
  5
12C1
330
1F
100
AcDbEntity
  8
SANINDUSA
100
AcDbLine
 10
4961.305486848261
 20
2381.803761200409
 30
0.0
 11
4961.30602863572
 21
2381.834800183141
 31
0.0
  0
LINE
  5
12C4
330
1F
100
AcDbEntity
  8
SANINDUSA
100
AcDbLine
 10
4961.309486239041
 20
2381.803761200409
 30
0.0
 11
4961.305486848261
 21
2381.803761200409
 31
0.0
  0
LINE
  5
12C7
330
1F
100
AcDbEntity
  8
SANINDUSA
100
AcDbLine
 10
4962.306166915347
 20
2381.834800183141
 30
0.0
 11
4962.306708702806
 21
2381.803761200409
 31
0.0
  0
LINE
  5
12C8
330
1F
100
AcDbEntity
  8
SANINDUSA
100
AcDbLine
 10
4962.306708702806
 20
2381.803761200409
 30
0.0
 11
4962.302709312026
 21
2381.803761200409
 31
0.0
  0
LINE
  5
12C9
330
1F
100
AcDbEntity
  8
SANINDUSA
100
AcDbLine
 10
4962.293372181534
 20
2381.838691390782
 30
0.0
 11
4962.302167270754
 21
2381.83873022187
 31
0.0
  0
LINE
  5
12CE
330
1F
100
AcDbEntity
  8
SANINDUSA
100
AcDbLine
 10
4961.310028280312
 20
2381.83873022187
 30
0.0
 11
4961.318823369532
 21
2381.838691390782
 31
0.0
  0
LINE
  5
12CF
330
1F
100
AcDbEntity
  8
SANINDUSA
100
AcDbLine
 10
4961.318823369532
 20
2381.838691390782
 30
0.0
 11
4962.293372181534
 21
2381.838691390782
 31
0.0
  0
ARC
  5
12D0
330
1F
100
AcDbEntity
  8
SANINDUSA
100
AcDbCircle
 10
4962.302167603593
 20
2381.834730299608
 30
0.0
 40
0.0039999222755568
100
AcDbArc
 50
1.001078255869631
 51
90.50116078617909
  0
ARC
  5
12D1
330
1F
100
AcDbEntity
  8
SANINDUSA
100
AcDbCircle
 10
4961.310027947473
 20
2381.834730299608
 30
0.0
 40
0.0039999222755564
100
AcDbArc
 50
89.49883921382092
 51
178.9989217441303
  0
ARC
  5
1358
330
1F
100
AcDbEntity
  8
SANINDUSA
100
AcDbCircle
 10
4960.24841259291
 20
2381.48399893858
 30
0.0
 40
0.0037219600793212
100
AcDbArc
 50
180.0575061253624
 51
269.9417340031839
  0
ARC
  5
135B
330
1F
100
AcDbEntity
  8
SANINDUSA
100
AcDbCircle
 10
4961.100296721886
 20
2381.483998933285
 30
0.0
 40
0.0037219404703902
100
AcDbArc
 50
270.0577301472688
 51
359.9429094276995
  0
ARC
  5
135F
330
1F
100
AcDbEntity
  8
SANINDUSA
100
AcDbCircle
 10
4961.100297350795
 20
2382.135883696486
 30
0.0
 40
0.003719605783647
100
AcDbArc
 50
359.9981124901038
 51
90.00173698955986
  0
ARC
  5
1362
330
1F
100
AcDbEntity
  8
SANINDUSA
100
AcDbCircle
 10
4960.248411941504
 20
2382.135883713688
 30
0.0
 40
0.0037195417698644
100
AcDbArc
 50
89.99679636863682
 51
180.0035111076443
  0
LWPOLYLINE
  5
1364
330
1F
100
AcDbEntity
  8
SANINDUSA
100
AcDbPolyline
 90
        9
 70
     0
 43
0.0
 10
4960.249767194811
 20
2381.480276470736
 10
4960.338357806244
 20
2381.480238512711
 10
4960.466358418437
 20
2381.480213697745
 10
4960.594358898392
 20
2381.480183997547
 10
4960.658357419289
 20
2381.480155144354
 10
4960.674354673242
 20
2381.480153195251
 10
4960.802353722458
 20
2381.480178847401
 10
4960.930352742876
 20
2381.480217554599
 10
4961.098942103552
 20
2381.480276490473
  0
LWPOLYLINE
  5
1368
330
1F
100
AcDbEntity
  8
SANINDUSA
100
AcDbPolyline
 90
        7
 70
     0
 43
0.0
 10
4960.244692511307
 20
2382.134526815098
 10
4960.244692101449
 20
2382.126526815229
 10
4960.244690509892
 20
2382.094526815729
 10
4960.244684526212
 20
2381.966526817543
 10
4960.24467543723
 20
2381.775733398555
 10
4960.244673957241
 20
2381.745941475
 10
4960.244665955971
 20
2381.584939980026
  0
LWPOLYLINE
  5
136A
330
1F
100
AcDbEntity
  8
SANINDUSA
100
AcDbPolyline
 90
        5
 70
     0
 43
0.0
 10
4960.24466597367
 20
2381.584940255025
 10
4960.244666142076
 20
2381.576940255014
 10
4960.244669770599
 20
2381.544940256922
 10
4960.244681480023
 20
2381.504943490915
 10
4960.244690137791
 20
2381.485353456588
  0
LWPOLYLINE
  5
136C
330
1F
100
AcDbEntity
  8
SANINDUSA
100
AcDbPolyline
 90
        5
 70
     0
 43
0.0
 10
4961.104019153208
 20
2381.48535347297
 10
4961.104022898878
 20
2381.493353461676
 10
4961.104034734393
 20
2381.525353432765
 10
4961.104042673313
 20
2381.568940925863
 10
4961.104043346306
 20
2381.584940029966
  0
LWPOLYLINE
  5
136F
330
1F
100
AcDbEntity
  8
SANINDUSA
100
AcDbPolyline
 90
        8
 70
     0
 43
0.0
 10
4961.104043345684
 20
2381.584940118262
 10
4961.104043012348
 20
2381.592940118156
 10
4961.10404162421
 20
2381.624940117699
 10
4961.104035859552
 20
2381.752940115785
 10
4961.104030152956
 20
2381.88013569732
 10
4961.104027193839
 20
2381.94373348805
 10
4961.104024063168
 20
2382.007331278695
 10
4961.104016861321
 20
2382.134526859485
  0
LWPOLYLINE
  5
1372
330
1F
100
AcDbEntity
  8
SANINDUSA
100
AcDbPolyline
 90
       10
 70
     0
 43
0.0
 10
4961.09894050781
 20
2382.139603208512
 10
4961.090940508015
 20
2382.139603721208
 10
4961.058940508793
 20
2382.139605704336
 10
4960.930940511841
 20
2382.139613419177
 10
4960.866794200851
 20
2382.139617213498
 10
4960.802647889603
 20
2382.139620645856
 10
4960.802647889612
 20
2382.139620645856
 10
4960.738501577601
 20
2382.139622936335
 10
4960.706428420667
 20
2382.139623412991
 10
4960.674355263484
 20
2382.139623121334
  0
LWPOLYLINE
  5
1374
330
1F
100
AcDbEntity
  8
SANINDUSA
100
AcDbPolyline
 90
        6
 70
     0
 43
0.0
 10
4960.674355213608
 20
2382.139623149036
 10
4960.66635521374
 20
2382.1396227672
 10
4960.634355214288
 20
2382.139621207433
 10
4960.506355216391
 20
2382.139614996064
 10
4960.378062033104
 20
2382.139609121665
 10
4960.249768849802
 20
2382.139603146704
  0
LINE
  5
1376
330
1F
100
AcDbEntity
  8
SANINDUSA
100
AcDbLine
 10
4960.248408807927
 20
2381.480276980426
 30
0.0
 11
4960.249767194811
 21
2381.480276470736
 31
0.0
  0
LINE
  5
1377
330
1F
100
AcDbEntity
  8
SANINDUSA
100
AcDbLine
 10
4961.098942103552
 20
2381.480276490473
 30
0.0
 11
4961.100300472041
 21
2381.480276994704
 31
0.0
  0
LINE
  5
1378
330
1F
100
AcDbEntity
  8
SANINDUSA
100
AcDbLine
 10
4960.244690137791
 20
2381.485353456588
 30
0.0
 11
4960.244690634706
 21
2381.483995202958
 31
0.0
  0
LINE
  5
1379
330
1F
100
AcDbEntity
  8
SANINDUSA
100
AcDbLine
 10
4961.104018660509
 20
2381.483995224676
 30
0.0
 11
4961.104019153208
 21
2381.48535347297
 31
0.0
  0
LINE
  5
137A
330
1F
100
AcDbEntity
  8
SANINDUSA
100
AcDbLine
 10
4961.100297238031
 20
2382.139603302268
 30
0.0
 11
4961.09894050781
 21
2382.139603208512
 31
0.0
  0
LINE
  5
137B
330
1F
100
AcDbEntity
  8
SANINDUSA
100
AcDbLine
 10
4961.104016861321
 20
2382.134526859485
 30
0.0
 11
4961.104016956577
 21
2382.135883573949
 31
0.0
  0
LINE
  5
137C
330
1F
100
AcDbEntity
  8
SANINDUSA
100
AcDbLine
 10
4960.244692399741
 20
2382.135883485753
 30
0.0
 11
4960.244692511307
 21
2382.134526815098
 31
0.0
  0
LINE
  5
137D
330
1F
100
AcDbEntity
  8
SANINDUSA
100
AcDbLine
 10
4960.249768849802
 20
2382.139603146704
 30
0.0
 11
4960.248412149478
 21
2382.139603255452
 31
0.0
  0
ARC
  5
1390
330
1F
100
AcDbEntity
  8
SANINDUSA
100
AcDbCircle
 10
4961.170966399774
 20
2381.413329255411
 30
0.0
 40
0.0039991822529305
100
AcDbArc
 50
269.9970123654497
 51
0.0029876345517117
  0
ARC
  5
1393
330
1F
100
AcDbEntity
  8
SANINDUSA
100
AcDbCircle
 10
4961.170966399774
 20
2382.206552745461
 30
0.0
 40
0.0039991822529306
100
AcDbArc
 50
359.9970123654482
 51
90.00298763455033
  0
ARC
  5
1396
330
1F
100
AcDbEntity
  8
SANINDUSA
100
AcDbCircle
 10
4960.177742909724
 20
2382.206552745461
 30
0.0
 40
0.0039991822529303
100
AcDbArc
 50
89.99701236544964
 51
180.0029876345517
  0
ARC
  5
1399
330
1F
100
AcDbEntity
  8
SANINDUSA
100
AcDbCircle
 10
4960.177742909724
 20
2381.413329255411
 30
0.0
 40
0.0039991822529305
100
AcDbArc
 50
179.9970123654483
 51
270.0029876345504
  0
LINE
  5
139C
330
1F
100
AcDbEntity
  8
SANINDUSA
100
AcDbLine
 10
4961.174965582021
 20
2381.413329463944
 30
0.0
 11
4961.174965582021
 21
2382.206552536928
 31
0.0
  0
LINE
  5
139D
330
1F
100
AcDbEntity
  8
SANINDUSA
100
AcDbLine
 10
4961.170966191241
 20
2382.210551927709
 30
0.0
 11
4960.177743118258
 21
2382.210551927709
 31
0.0
  0
LINE
  5
139E
330
1F
100
AcDbEntity
  8
SANINDUSA
100
AcDbLine
 10
4960.177743118258
 20
2381.409330073164
 30
0.0
 11
4961.170966191241
 21
2381.409330073164
 31
0.0
  0
LINE
  5
139F
330
1F
100
AcDbEntity
  8
SANINDUSA
100
AcDbLine
 10
4960.173743727477
 20
2382.206552536928
 30
0.0
 11
4960.173743727477
 21
2381.413329463944
 31
0.0
  0
LWPOLYLINE
  5
13A1
330
1F
100
AcDbEntity
  8
SANINDUSA
100
AcDbPolyline
 90
        5
 70
     0
 43
0.0
 10
4963.910248954591
 20
2381.823250632762
 10
4963.791302201002
 20
2381.823820508578
 10
4963.67216189826
 20
2381.825537652879
 10
4963.553181192095
 20
2381.828395627669
 10
4963.434160746624
 20
2381.832398609212
  0
LWPOLYLINE
  5
13A2
330
1F
100
AcDbEntity
  8
SANINDUSA
100
AcDbPolyline
 90
        5
 70
     0
 43
0.0
 10
4963.910229790747
 20
2381.819250678669
 10
4963.791263795602
 20
2381.819820646672
 10
4963.672085046774
 20
2381.821538345088
 10
4963.553065934879
 20
2381.824397242402
 10
4963.434026291761
 20
2381.828400869615
  0
ARC
  5
13A5
330
1F
100
AcDbEntity
  8
SANINDUSA
100
AcDbCircle
 10
4964.03027896545
 20
2381.971213576654
 30
0.0
 40
0.1509671675587902
100
AcDbArc
 50
281.4503663179301
 51
292.3253543012125
  0
ARC
  5
13A6
330
1F
100
AcDbEntity
  8
SANINDUSA
100
AcDbCircle
 10
4964.03027896545
 20
2381.971213576654
 30
0.0
 40
0.1549671675587902
100
AcDbArc
 50
281.3263154051106
 51
292.3253543012125
  0
LINE
  5
13A7
330
1F
100
AcDbEntity
  8
SANINDUSA
100
AcDbLine
 10
4963.924936436343
 20
2381.822737762855
 30
0.0
 11
4963.910262000792
 21
2381.823250205436
 31
0.0
  0
LINE
  5
13A8
330
1F
100
AcDbEntity
  8
SANINDUSA
100
AcDbLine
 10
4963.923147218267
 20
2381.81879780555
 30
0.0
 11
4963.910122402807
 21
2381.819252642128
 31
0.0
  0
LINE
  5
13A9
330
1F
100
AcDbEntity
  8
SANINDUSA
100
AcDbLine
 10
4963.935248936343
 20
2381.811737762855
 30
0.0
 11
4963.924936436343
 21
2381.822737762855
 31
0.0
  0
LINE
  5
13AA
330
1F
100
AcDbEntity
  8
SANINDUSA
100
AcDbLine
 10
4963.933516008292
 20
2381.807737762855
 30
0.0
 11
4963.923147218267
 21
2381.81879780555
 31
0.0
  0
LINE
  5
13AB
330
1F
100
AcDbEntity
  8
SANINDUSA
100
AcDbLine
 10
4964.035248936342
 20
2381.811737762855
 30
0.0
 11
4963.935248936343
 21
2381.811737762855
 31
0.0
  0
LINE
  5
13AC
330
1F
100
AcDbEntity
  8
SANINDUSA
100
AcDbLine
 10
4964.036981864392
 20
2381.807737762855
 30
0.0
 11
4963.933516008292
 21
2381.807737762855
 31
0.0
  0
LINE
  5
13AD
330
1F
100
AcDbEntity
  8
SANINDUSA
100
AcDbLine
 10
4964.045561436343
 20
2381.822737762855
 30
0.0
 11
4964.035248936342
 21
2381.811737762855
 31
0.0
  0
LINE
  5
13AE
330
1F
100
AcDbEntity
  8
SANINDUSA
100
AcDbLine
 10
4964.047350654419
 20
2381.81879780555
 30
0.0
 11
4964.036981864392
 21
2381.807737762855
 31
0.0
  0
LINE
  5
13AF
330
1F
100
AcDbEntity
  8
SANINDUSA
100
AcDbLine
 10
4964.060235871892
 20
2381.823250205436
 30
0.0
 11
4964.045561436343
 21
2381.822737762855
 31
0.0
  0
LINE
  5
13B0
330
1F
100
AcDbEntity
  8
SANINDUSA
100
AcDbLine
 10
4964.06071397641
 20
2381.819264463037
 30
0.0
 11
4964.047350654419
 21
2381.81879780555
 31
0.0
  0
ARC
  5
13B2
330
1F
100
AcDbEntity
  8
SANINDUSA
100
AcDbCircle
 10
4964.086124534713
 20
2381.835270078498
 30
0.0
 40
0.0040000000000801
100
AcDbArc
 50
292.0498997717828
 51
347.9746339754377
  0
ARC
  5
13B3
330
1F
100
AcDbEntity
  8
SANINDUSA
100
AcDbCircle
 10
4964.086124534713
 20
2381.835270078498
 30
0.0
 40
0.0080000000000801
100
AcDbArc
 50
292.0498997717828
 51
347.9746339754377
  0
ARC
  5
13B4
330
1F
100
AcDbEntity
  8
SANINDUSA
100
AcDbCircle
 10
4964.093948978377
 20
2381.833603320763
 30
0.0
 40
0.004000000000002
100
AcDbArc
 50
91.00000000972007
 51
167.9746339754377
  0
LINE
  5
13B5
330
1F
100
AcDbEntity
  8
SANINDUSA
100
AcDbLine
 10
4964.156249560581
 20
2381.838691390782
 30
0.0
 11
4964.093879168752
 21
2381.837602711544
 31
0.0
  0
LINE
  5
13B6
330
1F
100
AcDbEntity
  8
SANINDUSA
100
AcDbLine
 10
4964.156319370206
 20
2381.834692000002
 30
0.0
 11
4964.093948978377
 21
2381.833603320763
 31
0.0
  0
ARC
  5
13B7
330
1F
100
AcDbEntity
  8
SANINDUSA
100
AcDbCircle
 10
4964.156319370206
 20
2381.834692000002
 30
0.0
 40
0.0040000000000001
100
AcDbArc
 50
1.000000009720081
 51
91.00000000972007
  0
LINE
  5
13B8
330
1F
100
AcDbEntity
  8
SANINDUSA
100
AcDbLine
 10
4964.160859878633
 20
2381.803761200409
 30
0.0
 11
4964.160318760986
 21
2381.834761809628
 31
0.0
  0
LINE
  5
13B9
330
1F
100
AcDbEntity
  8
SANINDUSA
100
AcDbLine
 10
4964.156859269321
 20
2381.803761200409
 30
0.0
 11
4964.156319370206
 21
2381.834692000002
 31
0.0
  0
LINE
  5
13BA
330
1F
100
AcDbEntity
  8
SANINDUSA
100
AcDbLine
 10
4963.359638024089
 20
2381.803761200409
 30
0.0
 11
4964.160859878633
 21
2381.803761200409
 31
0.0
  0
LINE
  5
13BB
330
1F
100
AcDbEntity
  8
SANINDUSA
100
AcDbLine
 10
4963.360179141734
 20
2381.834761809628
 30
0.0
 11
4963.359638024089
 21
2381.803761200409
 31
0.0
  0
LINE
  5
13BC
330
1F
100
AcDbEntity
  8
SANINDUSA
100
AcDbLine
 10
4963.364178532516
 20
2381.834692000002
 30
0.0
 11
4963.363638633401
 21
2381.803761200409
 31
0.0
  0
ARC
  5
13BD
330
1F
100
AcDbEntity
  8
SANINDUSA
100
AcDbCircle
 10
4963.364178532516
 20
2381.834692000002
 30
0.0
 40
0.0040000000000001
100
AcDbArc
 50
88.99999999027992
 51
178.9999999902799
  0
LINE
  5
13BE
330
1F
100
AcDbEntity
  8
SANINDUSA
100
AcDbLine
 10
4963.364248342141
 20
2381.838691390782
 30
0.0
 11
4963.426889025503
 21
2381.837597993587
 31
0.0
  0
LINE
  5
13BF
330
1F
100
AcDbEntity
  8
SANINDUSA
100
AcDbLine
 10
4963.364178532516
 20
2381.834692000002
 30
0.0
 11
4963.426819215878
 21
2381.833598602807
 31
0.0
  0
ARC
  5
13C0
330
1F
100
AcDbEntity
  8
SANINDUSA
100
AcDbCircle
 10
4963.42681928203
 20
2381.833598601662
 30
0.0
 40
0.0039999999901405
100
AcDbArc
 50
20.46480866975702
 51
88.99999993817765
  0
ARC
  5
13C1
330
1F
100
AcDbEntity
  8
SANINDUSA
100
AcDbCircle
 10
4963.434314378936
 20
2381.836395657784
 30
0.0
 40
0.0040000000215414
100
AcDbArc
 50
200.4654264726581
 51
267.7988378387398
  0
ARC
  5
13C2
330
1F
100
AcDbEntity
  8
SANINDUSA
100
AcDbCircle
 10
4963.434314378936
 20
2381.836395657784
 30
0.0
 40
0.0080000000215414
100
AcDbArc
 50
200.4654264726581
 51
267.7988378387398
  0
LINE
  5
13C6
330
1F
100
AcDbEntity
  8
SANINDUSA
100
AcDbLine
 10
4963.924936436343
 20
2381.822737762855
 30
0.0
 11
4964.045561436343
 21
2381.822737762855
 31
0.0
  0
LINE
  5
13CE
330
1F
100
AcDbEntity
  8
SANINDUSA
100
AcDbLine
 10
4963.37297454536
 20
2381.838691390782
 30
0.0
 11
4963.364214109799
 21
2381.838730068871
 31
0.0
  0
LINE
  5
13D5
330
1F
100
AcDbEntity
  8
SANINDUSA
100
AcDbLine
 10
4964.156283792924
 20
2381.838730068871
 30
0.0
 11
4964.147523357362
 21
2381.838691390782
 31
0.0
  0
LINE
  5
13E6
330
1F
100
AcDbEntity
  8
SANINDUSA
100
AcDbLine
 10
4964.147523357362
 20
2381.838691390782
 30
0.0
 11
4963.37297454536
 21
2381.838691390782
 31
0.0
  0
ARC
  5
13E7
330
1F
100
AcDbEntity
  8
SANINDUSA
100
AcDbCircle
 10
4963.364179123301
 20
2381.834730299608
 30
0.0
 40
0.0039999222755564
100
AcDbArc
 50
89.49883921382092
 51
178.9989217441303
  0
ARC
  5
13E9
330
1F
100
AcDbEntity
  8
SANINDUSA
100
AcDbCircle
 10
4964.156318779421
 20
2381.834730299608
 30
0.0
 40
0.0039999222755564
100
AcDbArc
 50
1.001078255869631
 51
90.50116078617909
  0
LINE
  5
13F1
330
1F
100
AcDbEntity
  8
SANINDUSA
100
AcDbLine
 10
4963.359638024089
 20
2381.803761200409
 30
0.0
 11
4963.363638633401
 21
2381.803761200409
 31
0.0
  0
LINE
  5
13F2
330
1F
100
AcDbEntity
  8
SANINDUSA
100
AcDbLine
 10
4964.156859269321
 20
2381.803761200409
 30
0.0
 11
4964.160859878633
 21
2381.803761200409
 31
0.0
  0
LINE
  5
171D
330
1F
100
AcDbEntity
  8
SANINDUSA
100
AcDbLine
 10
4962.427693839509
 20
2381.803761200409
 30
0.0
 11
4962.428235626968
 21
2381.834800183141
 31
0.0
  0
LINE
  5
1721
330
1F
100
AcDbEntity
  8
SANINDUSA
100
AcDbLine
 10
4962.431693230289
 20
2381.803761200409
 30
0.0
 11
4962.427693839509
 21
2381.803761200409
 31
0.0
  0
LINE
  5
1725
330
1F
100
AcDbEntity
  8
SANINDUSA
100
AcDbLine
 10
4963.228373906594
 20
2381.834800183141
 30
0.0
 11
4963.228915694053
 21
2381.803761200409
 31
0.0
  0
LINE
  5
1726
330
1F
100
AcDbEntity
  8
SANINDUSA
100
AcDbLine
 10
4963.228915694053
 20
2381.803761200409
 30
0.0
 11
4963.224916303273
 21
2381.803761200409
 31
0.0
  0
LINE
  5
172A
330
1F
100
AcDbEntity
  8
SANINDUSA
100
AcDbLine
 10
4962.431693230289
 20
2381.803761200409
 30
0.0
 11
4963.224916303273
 21
2381.803761200409
 31
0.0
  0
LINE
  5
172D
330
1F
100
AcDbEntity
  8
SANINDUSA
100
AcDbLine
 10
4962.43223527156
 20
2381.83873022187
 30
0.0
 11
4962.44103036078
 21
2381.838691390782
 31
0.0
  0
LINE
  5
1730
330
1F
100
AcDbEntity
  8
SANINDUSA
100
AcDbLine
 10
4963.215579172782
 20
2381.838691390782
 30
0.0
 11
4963.224374262002
 21
2381.83873022187
 31
0.0
  0
LINE
  5
1733
330
1F
100
AcDbEntity
  8
SANINDUSA
100
AcDbLine
 10
4962.44103036078
 20
2381.838691390782
 30
0.0
 11
4963.215579172782
 21
2381.838691390782
 31
0.0
  0
ARC
  5
1734
330
1F
100
AcDbEntity
  8
SANINDUSA
100
AcDbCircle
 10
4963.22437459484
 20
2381.834730299608
 30
0.0
 40
0.0039999222755557
100
AcDbArc
 50
1.001078255869631
 51
90.50116078617909
  0
ARC
  5
1735
330
1F
100
AcDbEntity
  8
SANINDUSA
100
AcDbCircle
 10
4962.432234938721
 20
2381.834730299608
 30
0.0
 40
0.0039999222755562
100
AcDbArc
 50
89.49883921382092
 51
178.9989217441303
  0
ENDSEC
  0
SECTION
  2
OBJECTS
  0
DICTIONARY
  5
C
330
0
100
AcDbDictionary
281
     1
  3
ACAD_2007HEADERVARS_RT
350
1914
  3
ACAD_BACKGROUND
350
18C4
  3
ACAD_COLOR
350
EE6
  3
ACAD_GROUP
350
D
  3
ACAD_LAYOUT
350
1A
  3
ACAD_MATERIAL
350
EE5
  3
ACAD_MLEADERSTYLE
350
10A8
  3
ACAD_MLINESTYLE
350
17
  3
ACAD_PLOTSETTINGS
350
19
  3
ACAD_PLOTSTYLENAME
350
E
  3
ACAD_SCALELIST
350
1096
  3
ACAD_TABLESTYLE
350
EE7
  3
ACAD_VISUALSTYLE
350
1082
  3
ACDB_RECOMPOSE_DATA
350
1912
  3
AcDbVariableDictionary
350
3D
  3
AEC_PROPERTY_SET_DEFS
350
12B0
  3
ASE_INDEX_DICTIONARY
350
1066
  3
Autodesk_PNP
350
10B2
  3
DWGPROPS
350
1913
  0
DICTIONARY
  5
18CC
330
8
100
AcDbDictionary
280
     1
281
     1
  0
DICTIONARY
  5
1051
330
2
100
AcDbDictionary
280
     1
281
     1
  3
ACAD_LAYERFILTERS
360
1065
  3
ACAD_LAYERSTATES
360
113D
  3
ACLYDICTIONARY
360
1064
  0
DICTIONARY
  5
1862
330
10
100
AcDbDictionary
280
     1
281
     1
  3
ADSK_XREC_LAYER_RECONCILED
360
1863
  0
DICTIONARY
  5
1864
330
2F
100
AcDbDictionary
280
     1
281
     1
  3
ADSK_XREC_LAYER_RECONCILED
360
1865
  0
DICTIONARY
  5
1866
330
30
100
AcDbDictionary
280
     1
281
     1
  3
ADSK_XREC_LAYER_RECONCILED
360
1867
  0
DICTIONARY
  5
1868
330
31
100
AcDbDictionary
280
     1
281
     1
  3
ADSK_XREC_LAYER_RECONCILED
360
1869
  0
DICTIONARY
  5
186A
330
32
100
AcDbDictionary
280
     1
281
     1
  3
ADSK_XREC_LAYER_RECONCILED
360
186B
  0
DICTIONARY
  5
186C
330
33
100
AcDbDictionary
280
     1
281
     1
  3
ADSK_XREC_LAYER_RECONCILED
360
186D
  0
DICTIONARY
  5
186E
330
34
100
AcDbDictionary
280
     1
281
     1
  3
ADSK_XREC_LAYER_RECONCILED
360
186F
  0
DICTIONARY
  5
1870
330
35
100
AcDbDictionary
280
     1
281
     1
  3
ADSK_XREC_LAYER_RECONCILED
360
1871
  0
DICTIONARY
  5
1872
330
36
100
AcDbDictionary
280
     1
281
     1
  3
ADSK_XREC_LAYER_RECONCILED
360
1873
  0
DICTIONARY
  5
1874
330
37
100
AcDbDictionary
280
     1
281
     1
  3
ADSK_XREC_LAYER_RECONCILED
360
1875
  0
DICTIONARY
  5
1876
330
5D6
100
AcDbDictionary
280
     1
281
     1
  3
ADSK_XREC_LAYER_RECONCILED
360
1877
  0
DICTIONARY
  5
1878
330
8AF
100
AcDbDictionary
280
     1
281
     1
  3
ADSK_XREC_LAYER_RECONCILED
360
1879
  0
DICTIONARY
  5
187A
330
8F8
100
AcDbDictionary
280
     1
281
     1
  3
ADSK_XREC_LAYER_RECONCILED
360
187B
  0
DICTIONARY
  5
187C
330
91D
100
AcDbDictionary
280
     1
281
     1
  3
ADSK_XREC_LAYER_RECONCILED
360
187D
  0
DICTIONARY
  5
187E
330
C7B
100
AcDbDictionary
280
     1
281
     1
  3
ADSK_XREC_LAYER_RECONCILED
360
187F
  0
DICTIONARY
  5
1880
330
1060
100
AcDbDictionary
280
     1
281
     1
  3
ADSK_XREC_LAYER_RECONCILED
360
1881
  0
DICTIONARY
  5
16DE
330
1570
100
AcDbDictionary
280
     1
281
     1
  3
ACAD_SORTENTS
360
16DF
  0
DICTIONARY
  5
1948
330
154B
100
AcDbDictionary
280
     1
281
     1
  3
ACAD_MTEXT_RT
360
1949
  0
DICTIONARY
  5
15BE
330
15BD
100
AcDbDictionary
280
     1
281
     1
  3
ACAD_DIMASSOC
360
15BF
  0
DICTIONARY
  5
15C1
330
15C0
100
AcDbDictionary
280
     1
281
     1
  3
ACAD_DIMASSOC
360
15C2
  0
DICTIONARY
  5
15CB
330
15CA
100
AcDbDictionary
280
     1
281
     1
  3
ACAD_DIMASSOC
360
15CC
  0
DICTIONARY
  5
16CA
330
16C9
100
AcDbDictionary
280
     1
281
     1
  3
ACAD_DIMASSOC
360
16CB
  0
DICTIONARY
  5
16CD
330
16CC
100
AcDbDictionary
280
     1
281
     1
  3
ACAD_DIMASSOC
360
16CE
  0
DICTIONARY
  5
16D0
330
16CF
100
AcDbDictionary
280
     1
281
     1
  3
ACAD_DIMASSOC
360
16D1
  0
DICTIONARY
  5
16D3
330
16D2
100
AcDbDictionary
280
     1
281
     1
  3
ACAD_DIMASSOC
360
16D4
  0
DICTIONARY
  5
16D6
330
16D5
100
AcDbDictionary
280
     1
281
     1
  3
ACAD_DIMASSOC
360
16D7
  0
DICTIONARY
  5
16DB
330
16DA
100
AcDbDictionary
280
     1
281
     1
  3
ACAD_DIMASSOC
360
16DC
  0
DICTIONARY
  5
1914
102
{ACAD_REACTORS
330
C
102
}
330
C
100
AcDbDictionary
281
     1
  3
DIMJOGANG
350
1915
  0
DICTIONARY
  5
18C4
102
{ACAD_REACTORS
330
C
102
}
330
C
100
AcDbDictionary
281
     1
  0
DICTIONARY
  5
EE6
102
{ACAD_REACTORS
330
C
102
}
330
C
100
AcDbDictionary
281
     1
  0
DICTIONARY
  5
D
102
{ACAD_REACTORS
330
C
102
}
330
C
100
AcDbDictionary
281
     1
  0
DICTIONARY
  5
1A
102
{ACAD_REACTORS
330
C
102
}
330
C
100
AcDbDictionary
281
     1
  3
Layout1
350
1E
  3
Layout2
350
26
  3
Model
350
22
  0
DICTIONARY
  5
EE5
102
{ACAD_REACTORS
330
C
102
}
330
C
100
AcDbDictionary
281
     1
  3
ByBlock
350
1072
  3
ByLayer
350
106A
  3
Global
350
107A
  0
DICTIONARY
  5
10A8
102
{ACAD_REACTORS
330
C
102
}
330
C
100
AcDbDictionary
281
     1
  3
Standard
350
10A9
  0
DICTIONARY
  5
17
102
{ACAD_REACTORS
330
C
102
}
330
C
100
AcDbDictionary
281
     1
  3
Standard
350
18
  0
DICTIONARY
  5
19
102
{ACAD_REACTORS
330
C
102
}
330
C
100
AcDbDictionary
281
     1
  0
ACDBDICTIONARYWDFLT
  5
E
102
{ACAD_REACTORS
330
C
102
}
330
C
100
AcDbDictionary
281
     1
  3
Normal
350
F
100
AcDbDictionaryWithDefault
340
F
  0
DICTIONARY
  5
1096
102
{ACAD_REACTORS
330
C
102
}
330
C
100
AcDbDictionary
281
     1
  3
A0
350
1097
  3
A1
350
1098
  3
A2
350
1099
  3
A3
350
109A
  3
A4
350
109B
  3
A5
350
109C
  3
A6
350
109D
  3
A7
350
109E
  3
A8
350
109F
  3
A9
350
10A0
  3
B0
350
10A1
  3
B1
350
10A2
  3
B2
350
10A3
  3
B3
350
10A4
  3
B4
350
10A5
  3
B5
350
10A6
  3
B6
350
10A7
  0
DICTIONARY
  5
EE7
102
{ACAD_REACTORS
330
C
102
}
330
C
100
AcDbDictionary
281
     1
  3
Standard
350
EE8
  0
DICTIONARY
  5
1082
102
{ACAD_REACTORS
330
C
102
}
330
C
100
AcDbDictionary
281
     1
  3
2dWireframe
350
1088
  3
3D Hidden
350
108A
  3
3dWireframe
350
1089
  3
Basic
350
1087
  3
Brighten
350
108E
  3
ColorChange
350
1092
  3
Conceptual
350
108B
  3
Dim
350
108D
  3
EdgeColorOff
350
1095
  3
Facepattern
350
1091
  3
Flat
350
1083
  3
FlatWithEdges
350
1084
  3
Gouraud
350
1085
  3
GouraudWithEdges
350
1086
  3
JitterOff
350
1093
  3
Linepattern
350
1090
  3
OverhangOff
350
1094
  3
Realistic
350
108C
  3
Thicken
350
108F
  0
XRECORD
  5
1912
102
{ACAD_REACTORS
330
C
102
}
330
C
100
AcDbXrecord
280
     1
 90
        1
330
EE8
  0
DICTIONARY
  5
3D
102
{ACAD_REACTORS
330
C
102
}
330
C
100
AcDbDictionary
281
     1
  3
CANNOSCALE
350
1904
  3
CMLEADERSTYLE
350
1903
  3
CTABLESTYLE
350
1049
  3
DIMASSOC
350
3F
  3
HIDETEXT
350
3E
  3
INDEXCTL
350
1906
  3
SORTENTS
350
1905
  3
XCLIPFRAME
350
1910
  0
DICTIONARY
  5
12B0
102
{ACAD_REACTORS
330
C
102
}
330
C
100
AcDbDictionary
281
     1
  0
DICTIONARY
  5
1066
102
{ACAD_REACTORS
330
C
102
}
330
C
100
AcDbDictionary
281
     1
  3
ASEBlockHierarchyIndexRecord
350
1067
1001
DCO15
1040
1602247867.484
  0
DICTIONARY
  5
10B2
102
{ACAD_REACTORS
330
C
102
}
330
C
100
AcDbDictionary
281
     1
  0
XRECORD
  5
1913
102
{ACAD_REACTORS
330
C
102
}
330
C
100
AcDbXrecord
280
     1
  1
DWGPROPS COOKIE
  2

  3

  4

  6

  7

  8
Julio
  9

300
=
301
=
302
=
303
=
304
=
305
=
306
=
307
=
308
=
309
=
 40
0.0490670138888889
 41
2455782.538534433
 42
2456203.527707419
  1

 90
        0
  0
DICTIONARY
  5
1065
102
{ACAD_REACTORS
330
1051
102
}
330
1051
100
AcDbDictionary
281
     1
  0
DICTIONARY
  5
113D
102
{ACAD_REACTORS
330
1051
102
}
330
1051
100
AcDbDictionary
281
     1
  0
DICTIONARY
  5
1064
102
{ACAD_REACTORS
330
1051
102
}
330
1051
100
AcDbDictionary
281
     1
1001
ACAD
1000
<All
  0
XRECORD
  5
1863
102
{ACAD_REACTORS
330
1862
102
}
330
1862
100
AcDbXrecord
280
     1
290
     1
  0
XRECORD
  5
1865
102
{ACAD_REACTORS
330
1864
102
}
330
1864
100
AcDbXrecord
280
     1
290
     1
  0
XRECORD
  5
1867
102
{ACAD_REACTORS
330
1866
102
}
330
1866
100
AcDbXrecord
280
     1
290
     1
  0
XRECORD
  5
1869
102
{ACAD_REACTORS
330
1868
102
}
330
1868
100
AcDbXrecord
280
     1
290
     1
  0
XRECORD
  5
186B
102
{ACAD_REACTORS
330
186A
102
}
330
186A
100
AcDbXrecord
280
     1
290
     1
  0
XRECORD
  5
186D
102
{ACAD_REACTORS
330
186C
102
}
330
186C
100
AcDbXrecord
280
     1
290
     1
  0
XRECORD
  5
186F
102
{ACAD_REACTORS
330
186E
102
}
330
186E
100
AcDbXrecord
280
     1
290
     1
  0
XRECORD
  5
1871
102
{ACAD_REACTORS
330
1870
102
}
330
1870
100
AcDbXrecord
280
     1
290
     1
  0
XRECORD
  5
1873
102
{ACAD_REACTORS
330
1872
102
}
330
1872
100
AcDbXrecord
280
     1
290
     1
  0
XRECORD
  5
1875
102
{ACAD_REACTORS
330
1874
102
}
330
1874
100
AcDbXrecord
280
     1
290
     1
  0
XRECORD
  5
1877
102
{ACAD_REACTORS
330
1876
102
}
330
1876
100
AcDbXrecord
280
     1
290
     1
  0
XRECORD
  5
1879
102
{ACAD_REACTORS
330
1878
102
}
330
1878
100
AcDbXrecord
280
     1
290
     1
  0
XRECORD
  5
187B
102
{ACAD_REACTORS
330
187A
102
}
330
187A
100
AcDbXrecord
280
     1
290
     1
  0
XRECORD
  5
187D
102
{ACAD_REACTORS
330
187C
102
}
330
187C
100
AcDbXrecord
280
     1
290
     1
  0
XRECORD
  5
187F
102
{ACAD_REACTORS
330
187E
102
}
330
187E
100
AcDbXrecord
280
     1
290
     1
  0
XRECORD
  5
1881
102
{ACAD_REACTORS
330
1880
102
}
330
1880
100
AcDbXrecord
280
     1
290
     1
  0
SORTENTSTABLE
  5
16DF
102
{ACAD_REACTORS
330
16DE
102
}
330
16DE
100
AcDbSortentsTable
330
1570
  0
XRECORD
  5
1949
102
{ACAD_REACTORS
330
1948
102
}
330
1948
100
AcDbXrecord
280
     1
 40
3126.0
  1
1,0°
  0
DIMASSOC
  5
15BF
102
{ACAD_REACTORS
330
15BE
102
}
330
15BE
100
AcDbDimAssoc
330
15BD
 90
        3
 70
     0
 71
     0
  1
AcDbOsnapPointRef
 72
    13
331
158A
 73
     2
 91
        0
 40
0.0
 10
0.0
 20
0.0
 30
2.000000000000000E+50
 75
     0
  1
AcDbOsnapPointRef
 72
     1
331
1587
 73
     2
 91
        0
 40
1.0
 10
0.0
 20
0.0
 30
2.000000000000000E+50
 75
     0
  0
DIMASSOC
  5
15C2
102
{ACAD_REACTORS
330
15C1
102
}
330
15C1
100
AcDbDimAssoc
330
15C0
 90
        3
 70
     0
 71
     0
  1
AcDbOsnapPointRef
 72
     1
331
1587
 73
     2
 91
        0
 40
1.0
 10
0.0
 20
0.0
 30
2.000000000000000E+50
 75
     0
  1
AcDbOsnapPointRef
 72
    13
331
1585
 73
     2
 91
        0
 40
0.0
 10
0.0
 20
0.0
 30
2.000000000000000E+50
 75
     0
  0
DIMASSOC
  5
15CC
102
{ACAD_REACTORS
330
15CB
102
}
330
15CB
100
AcDbDimAssoc
330
15CA
 90
        2
 70
     0
 71
     0
  1
AcDbOsnapPointRef
 72
     8
331
15B0
 73
     2
 91
        0
 40
0.0482833343279195
 10
0.0
 20
0.0
 30
0.0
 75
     1
  1
AcDbOsnapPointRef
 72
     0
 40
0.0
 10
4848.543397111477
 20
2078.31501345228
 30
0.0
 75
     0
  0
DIMASSOC
  5
16CB
102
{ACAD_REACTORS
330
16CA
102
}
330
16CA
100
AcDbDimAssoc
330
16C9
 90
        2
 70
     0
 71
     0
  1
AcDbOsnapPointRef
 72
     3
331
1662
 73
     2
 91
        0
 40
0.0
 10
0.0
 20
0.0
 30
0.0
 75
     0
  0
DIMASSOC
  5
16CE
102
{ACAD_REACTORS
330
16CD
102
}
330
16CD
100
AcDbDimAssoc
330
16CC
 90
        2
 70
     0
 71
     0
  1
AcDbOsnapPointRef
 72
     3
331
166F
 73
     2
 91
        0
 40
0.0
 10
0.0
 20
0.0
 30
0.0
 75
     0
  0
DIMASSOC
  5
16D1
102
{ACAD_REACTORS
330
16D0
102
}
330
16D0
100
AcDbDimAssoc
330
16CF
 90
        2
 70
     0
 71
     0
  1
AcDbOsnapPointRef
 72
     3
331
1671
 73
     2
 91
        0
 40
0.0
 10
0.0
 20
0.0
 30
0.0
 75
     0
  0
DIMASSOC
  5
16D4
102
{ACAD_REACTORS
330
16D3
102
}
330
16D3
100
AcDbDimAssoc
330
16D2
 90
       15
 70
     0
 71
     0
  1
AcDbOsnapPointRef
 72
    13
331
16A3
 73
     2
 91
        0
 40
0.0
 10
0.0
 20
0.0
 30
2.000000000000000E+50
 75
     0
  1
AcDbOsnapPointRef
 72
     1
331
16A3
 73
     2
 91
        0
 40
1.0
 10
0.0
 20
0.0
 30
2.000000000000000E+50
 75
     0
  1
AcDbOsnapPointRef
 72
    13
331
167B
 73
     2
 91
        0
 40
0.0
 10
0.0
 20
0.0
 30
2.000000000000000E+50
 75
     0
  1
AcDbOsnapPointRef
 72
     1
331
167B
 73
     2
 91
        0
 40
1.0
 10
0.0
 20
0.0
 30
2.000000000000000E+50
 75
     0
  0
DIMASSOC
  5
16D7
102
{ACAD_REACTORS
330
16D6
102
}
330
16D6
100
AcDbDimAssoc
330
16D5
 90
        2
 70
     0
 71
     0
  1
AcDbOsnapPointRef
 72
     3
331
16A4
 73
     2
 91
        0
 40
0.0
 10
0.0
 20
0.0
 30
0.0
 75
     0
  0
DIMASSOC
  5
16DC
102
{ACAD_REACTORS
330
16DB
102
}
330
16DB
100
AcDbDimAssoc
330
16DA
 90
        2
 70
     0
 71
     0
  1
AcDbOsnapPointRef
 72
     3
331
1650
 73
     2
 91
        0
 40
0.0
 10
0.0
 20
0.0
 30
0.0
 75
     0
  0
XRECORD
  5
1915
102
{ACAD_REACTORS
330
1914
102
}
330
1914
100
AcDbXrecord
280
     1
 40
1.570796326794896
  0
LAYOUT
  5
1E
102
{ACAD_XDICTIONARY
360
1916
102
}
102
{ACAD_REACTORS
330
1A
102
}
330
1A
100
AcDbPlotSettings
  1

  2
Ploter HP500
  4

  6

 40
0.0
 41
0.0
 42
0.0
 43
0.0
 44
0.0
 45
0.0
 46
0.0
 47
0.0
 48
0.0
 49
0.0
140
0.0
141
0.0
142
1.0
143
1.0
 70
   688
 72
     0
 73
     0
 74
     5
  7
sanindusa.ctb
 75
    16
147
1.0
148
0.0
149
0.0
100
AcDbLayout
  1
Layout1
 70
     1
 71
     1
 10
0.0
 20
0.0
 11
420.0
 21
297.0
 12
0.0
 22
0.0
 32
0.0
 14
1.000000000000000E+20
 24
1.000000000000000E+20
 34
1.000000000000000E+20
 15
-1.000000000000000E+20
 25
-1.000000000000000E+20
 35
-1.000000000000000E+20
146
0.0
 13
0.0
 23
0.0
 33
0.0
 16
1.0
 26
0.0
 36
0.0
 17
0.0
 27
1.0
 37
0.0
 76
     0
330
1B
  0
LAYOUT
  5
26
102
{ACAD_XDICTIONARY
360
191A
102
}
102
{ACAD_REACTORS
330
1A
102
}
330
1A
100
AcDbPlotSettings
  1

  2
Ploter HP500
  4

  6

 40
0.0
 41
0.0
 42
0.0
 43
0.0
 44
0.0
 45
0.0
 46
0.0
 47
0.0
 48
0.0
 49
0.0
140
0.0
141
0.0
142
1.0
143
1.0
 70
   688
 72
     0
 73
     0
 74
     5
  7
sanindusa.ctb
 75
    16
147
1.0
148
0.0
149
0.0
100
AcDbLayout
  1
Layout2
 70
     1
 71
     2
 10
0.0
 20
0.0
 11
12.0
 21
9.0
 12
0.0
 22
0.0
 32
0.0
 14
0.0
 24
0.0
 34
0.0
 15
0.0
 25
0.0
 35
0.0
146
0.0
 13
0.0
 23
0.0
 33
0.0
 16
1.0
 26
0.0
 36
0.0
 17
0.0
 27
1.0
 37
0.0
 76
     0
330
23
  0
LAYOUT
  5
22
102
{ACAD_XDICTIONARY
360
1918
102
}
102
{ACAD_REACTORS
330
1A
102
}
330
1A
100
AcDbPlotSettings
  1

  2
Ploter HP500
  4
User268
  6

 40
4.995333194732666
 41
16.97565841674804
 42
4.995330810546875
 43
16.97567749023437
 44
209.9733276367187
 45
296.9259948730469
 46
0.0
 47
0.0
 48
0.0
 49
0.0
140
0.0
141
0.0
142
1.0
143
1.0
 70
 11952
 72
     1
 73
     1
 74
     0
  7
sanindusa.ctb
 75
     0
147
1.0
148
-427.5957866592534
149
7.362384574453926
100
AcDbLayout
  1
Model
 70
     1
 71
     0
 10
0.0
 20
0.0
 11
12.0
 21
9.0
 12
0.0
 22
0.0
 32
0.0
 14
0.0
 24
0.0
 34
0.0
 15
0.0
 25
0.0
 35
0.0
146
0.0
 13
0.0
 23
0.0
 33
0.0
 16
1.0
 26
0.0
 36
0.0
 17
0.0
 27
1.0
 37
0.0
 76
     0
330
1F
331
1068
  0
MATERIAL
  5
1072
102
{ACAD_XDICTIONARY
360
1073
102
}
102
{ACAD_REACTORS
330
EE5
102
}
330
EE5
100
AcDbMaterial
  1
ByBlock
 72
     0
 43
0.0008202099737533
 43
0.0
 43
0.0
 43
0.0
 43
0.0
 43
0.0008202099737533
 43
0.0
 43
0.0
 43
0.0
 43
0.0
 43
1.0
 43
0.0
 43
0.0
 43
0.0
 43
0.0
 43
1.0
 77
     0
 47
0.0008202099737533
 47
0.0
 47
0.0
 47
0.0
 47
0.0
 47
0.0008202099737533
 47
0.0
 47
0.0
 47
0.0
 47
0.0
 47
1.0
 47
0.0
 47
0.0
 47
0.0
 47
0.0
 47
1.0
171
     0
 49
0.0008202099737533
 49
0.0
 49
0.0
 49
0.0
 49
0.0
 49
0.0008202099737533
 49
0.0
 49
0.0
 49
0.0
 49
0.0
 49
1.0
 49
0.0
 49
0.0
 49
0.0
 49
0.0
 49
1.0
175
     0
142
0.0008202099737533
142
0.0
142
0.0
142
0.0
142
0.0
142
0.0008202099737533
142
0.0
142
0.0
142
0.0
142
0.0
142
1.0
142
0.0
142
0.0
142
0.0
142
0.0
142
1.0
179
     0
144
0.0008202099737533
144
0.0
144
0.0
144
0.0
144
0.0
144
0.0008202099737533
144
0.0
144
0.0
144
0.0
144
0.0
144
1.0
144
0.0
144
0.0
144
0.0
144
0.0
144
1.0
147
0.0008202099737533
147
0.0
147
0.0
147
0.0
147
0.0
147
0.0008202099737533
147
0.0
147
0.0
147
0.0
147
0.0
147
1.0
147
0.0
147
0.0
147
0.0
147
0.0
147
1.0
  0
MATERIAL
  5
106A
102
{ACAD_XDICTIONARY
360
106B
102
}
102
{ACAD_REACTORS
330
EE5
102
}
330
EE5
100
AcDbMaterial
  1
ByLayer
 72
     0
 43
0.0008202099737533
 43
0.0
 43
0.0
 43
0.0
 43
0.0
 43
0.0008202099737533
 43
0.0
 43
0.0
 43
0.0
 43
0.0
 43
1.0
 43
0.0
 43
0.0
 43
0.0
 43
0.0
 43
1.0
 77
     0
 47
0.0008202099737533
 47
0.0
 47
0.0
 47
0.0
 47
0.0
 47
0.0008202099737533
 47
0.0
 47
0.0
 47
0.0
 47
0.0
 47
1.0
 47
0.0
 47
0.0
 47
0.0
 47
0.0
 47
1.0
171
     0
 49
0.0008202099737533
 49
0.0
 49
0.0
 49
0.0
 49
0.0
 49
0.0008202099737533
 49
0.0
 49
0.0
 49
0.0
 49
0.0
 49
1.0
 49
0.0
 49
0.0
 49
0.0
 49
0.0
 49
1.0
175
     0
142
0.0008202099737533
142
0.0
142
0.0
142
0.0
142
0.0
142
0.0008202099737533
142
0.0
142
0.0
142
0.0
142
0.0
142
1.0
142
0.0
142
0.0
142
0.0
142
0.0
142
1.0
179
     0
144
0.0008202099737533
144
0.0
144
0.0
144
0.0
144
0.0
144
0.0008202099737533
144
0.0
144
0.0
144
0.0
144
0.0
144
1.0
144
0.0
144
0.0
144
0.0
144
0.0
144
1.0
147
0.0008202099737533
147
0.0
147
0.0
147
0.0
147
0.0
147
0.0008202099737533
147
0.0
147
0.0
147
0.0
147
0.0
147
1.0
147
0.0
147
0.0
147
0.0
147
0.0
147
1.0
  0
MATERIAL
  5
107A
102
{ACAD_XDICTIONARY
360
107B
102
}
102
{ACAD_REACTORS
330
EE5
102
}
330
EE5
100
AcDbMaterial
  1
Global
 72
     0
 43
0.0008202099737533
 43
0.0
 43
0.0
 43
0.0
 43
0.0
 43
0.0008202099737533
 43
0.0
 43
0.0
 43
0.0
 43
0.0
 43
1.0
 43
0.0
 43
0.0
 43
0.0
 43
0.0
 43
1.0
 77
     0
 47
0.0008202099737533
 47
0.0
 47
0.0
 47
0.0
 47
0.0
 47
0.0008202099737533
 47
0.0
 47
0.0
 47
0.0
 47
0.0
 47
1.0
 47
0.0
 47
0.0
 47
0.0
 47
0.0
 47
1.0
171
     0
 49
0.0008202099737533
 49
0.0
 49
0.0
 49
0.0
 49
0.0
 49
0.0008202099737533
 49
0.0
 49
0.0
 49
0.0
 49
0.0
 49
1.0
 49
0.0
 49
0.0
 49
0.0
 49
0.0
 49
1.0
175
     0
142
0.0008202099737533
142
0.0
142
0.0
142
0.0
142
0.0
142
0.0008202099737533
142
0.0
142
0.0
142
0.0
142
0.0
142
1.0
142
0.0
142
0.0
142
0.0
142
0.0
142
1.0
179
     0
144
0.0008202099737533
144
0.0
144
0.0
144
0.0
144
0.0
144
0.0008202099737533
144
0.0
144
0.0
144
0.0
144
0.0
144
1.0
144
0.0
144
0.0
144
0.0
144
0.0
144
1.0
147
0.0008202099737533
147
0.0
147
0.0
147
0.0
147
0.0
147
0.0008202099737533
147
0.0
147
0.0
147
0.0
147
0.0
147
1.0
147
0.0
147
0.0
147
0.0
147
0.0
147
1.0
  0
MLEADERSTYLE
  5
10A9
102
{ACAD_REACTORS
330
10A8
102
}
330
10A8
100
AcDbMLeaderStyle
170
     2
171
     1
172
     0
 90
        2
 40
0.0
 41
0.0
173
     1
 91
-1056964608
340
14
 92
       -2
290
     1
 42
2.0
291
     1
 43
0.36
  3
Standard
 44
4.0
300

342
11
174
     1
178
     6
175
     1
176
     0
 93
-1056964608
 45
4.0
292
     0
297
     0
 46
4.0
 94
-1056964608
 47
1.0
 49
1.0
140
1.0
293
     1
141
0.0
294
     1
177
     0
142
1.0
295
     0
296
     0
143
0.125
1001
ACAD_MLEADERVER
1070
     2
  0
MLINESTYLE
  5
18
102
{ACAD_REACTORS
330
17
102
}
330
17
100
AcDbMlineStyle
  2
STANDARD
 70
     0
  3

 62
   256
 51
90.0
 52
90.0
 71
     2
 49
0.5
 62
   256
  6
BYLAYER
 49
-0.5
 62
   256
  6
BYLAYER
  0
ACDBPLACEHOLDER
  5
F
102
{ACAD_REACTORS
330
E
102
}
330
E
  0
SCALE
  5
1097
102
{ACAD_REACTORS
330
1096
102
}
330
1096
100
AcDbScale
 70
     0
300
1:1
140
1.0
141
1.0
290
     1
  0
SCALE
  5
1098
102
{ACAD_REACTORS
330
1096
102
}
330
1096
100
AcDbScale
 70
     0
300
1:2
140
1.0
141
2.0
290
     0
  0
SCALE
  5
1099
102
{ACAD_REACTORS
330
1096
102
}
330
1096
100
AcDbScale
 70
     0
300
1:4
140
1.0
141
4.0
290
     0
  0
SCALE
  5
109A
102
{ACAD_REACTORS
330
1096
102
}
330
1096
100
AcDbScale
 70
     0
300
1:5
140
1.0
141
5.0
290
     0
  0
SCALE
  5
109B
102
{ACAD_REACTORS
330
1096
102
}
330
1096
100
AcDbScale
 70
     0
300
1:8
140
1.0
141
8.0
290
     0
  0
SCALE
  5
109C
102
{ACAD_REACTORS
330
1096
102
}
330
1096
100
AcDbScale
 70
     0
300
1:10
140
1.0
141
10.0
290
     0
  0
SCALE
  5
109D
102
{ACAD_REACTORS
330
1096
102
}
330
1096
100
AcDbScale
 70
     0
300
1:16
140
1.0
141
16.0
290
     0
  0
SCALE
  5
109E
102
{ACAD_REACTORS
330
1096
102
}
330
1096
100
AcDbScale
 70
     0
300
1:20
140
1.0
141
20.0
290
     0
  0
SCALE
  5
109F
102
{ACAD_REACTORS
330
1096
102
}
330
1096
100
AcDbScale
 70
     0
300
1:30
140
1.0
141
30.0
290
     0
  0
SCALE
  5
10A0
102
{ACAD_REACTORS
330
1096
102
}
330
1096
100
AcDbScale
 70
     0
300
1:40
140
1.0
141
40.0
290
     0
  0
SCALE
  5
10A1
102
{ACAD_REACTORS
330
1096
102
}
330
1096
100
AcDbScale
 70
     0
300
1:50
140
1.0
141
50.0
290
     0
  0
SCALE
  5
10A2
102
{ACAD_REACTORS
330
1096
102
}
330
1096
100
AcDbScale
 70
     0
300
1:100
140
1.0
141
100.0
290
     0
  0
SCALE
  5
10A3
102
{ACAD_REACTORS
330
1096
102
}
330
1096
100
AcDbScale
 70
     0
300
2:1
140
2.0
141
1.0
290
     0
  0
SCALE
  5
10A4
102
{ACAD_REACTORS
330
1096
102
}
330
1096
100
AcDbScale
 70
     0
300
4:1
140
4.0
141
1.0
290
     0
  0
SCALE
  5
10A5
102
{ACAD_REACTORS
330
1096
102
}
330
1096
100
AcDbScale
 70
     0
300
8:1
140
8.0
141
1.0
290
     0
  0
SCALE
  5
10A6
102
{ACAD_REACTORS
330
1096
102
}
330
1096
100
AcDbScale
 70
     0
300
10:1
140
10.0
141
1.0
290
     0
  0
SCALE
  5
10A7
102
{ACAD_REACTORS
330
1096
102
}
330
1096
100
AcDbScale
 70
     0
300
100:1
140
100.0
141
1.0
290
     0
  0
TABLESTYLE
  5
EE8
102
{ACAD_XDICTIONARY
360
18C6
102
}
102
{ACAD_REACTORS
330
EE7
102
}
330
EE7
100
AcDbTableStyle
  3
Standard
 70
     0
 71
     0
 40
1.5
 41
1.5
280
     0
281
     0
  7
Standard
140
4.5
170
     2
 62
     0
 63
     7
283
     0
274
    -2
284
     1
 64
     0
275
    -2
285
     1
 65
     0
276
    -2
286
     1
 66
     0
277
    -2
287
     1
 67
     0
278
    -2
288
     1
 68
     0
279
    -2
289
     1
 69
     0
  7
Standard
140
6.0
170
     5
 62
     0
 63
     7
283
     0
274
    -2
284
     1
 64
     0
275
    -2
285
     1
 65
     0
276
    -2
286
     1
 66
     0
277
    -2
287
     1
 67
     0
278
    -2
288
     1
 68
     0
279
    -2
289
     1
 69
     0
  7
Standard
140
4.5
170
     5
 62
     0
 63
     7
283
     0
274
    -2
284
     1
 64
     0
275
    -2
285
     1
 65
     0
276
    -2
286
     1
 66
     0
277
    -2
287
     1
 67
     0
278
    -2
288
     1
 68
     0
279
    -2
289
     1
 69
     0
  0
VISUALSTYLE
  5
1088
102
{ACAD_XDICTIONARY
360
192A
102
}
102
{ACAD_REACTORS
330
1082
102
}
330
1082
100
AcDbVisualStyle
  2
2dWireframe
 70
     4
 71
     0
 72
     2
 73
     0
 90
        0
 40
-0.6
 41
-30.0
 62
     5
 63
     7
 74
     1
 91
        4
 64
     7
 65
   257
 75
     1
175
     1
 42
1.0
 92
        0
 66
   257
 43
1.0
 76
     1
 77
     6
 78
     2
 67
     7
 79
     5
170
     0
171
     0
290
     0
174
     0
 93
        1
 44
0.0
173
     0
291
     0
 45
0.0
1001
ACAD
1000
AcDbSavedByObjectVersion
1070
     0
  0
VISUALSTYLE
  5
108A
102
{ACAD_XDICTIONARY
360
192E
102
}
102
{ACAD_REACTORS
330
1082
102
}
330
1082
100
AcDbVisualStyle
  2
3D Hidden
 70
     6
 71
     1
 72
     2
 73
     2
 90
        0
 40
-0.6
 41
-30.0
 62
     5
 63
     7
 74
     2
 91
        2
 64
     7
 65
   257
 75
     2
175
     1
 42
179.0
 92
        0
 66
   257
 43
1.0
 76
     1
 77
     6
 78
     2
 67
     7
 79
     3
170
     0
171
     0
290
     0
174
     0
 93
        1
 44
0.0
173
     0
291
     0
 45
0.0
1001
ACAD
1000
AcDbSavedByObjectVersion
1070
     0
  0
VISUALSTYLE
  5
1089
102
{ACAD_XDICTIONARY
360
192C
102
}
102
{ACAD_REACTORS
330
1082
102
}
330
1082
100
AcDbVisualStyle
  2
3dWireframe
 70
     5
 71
     0
 72
     2
 73
     0
 90
        0
 40
-0.6
 41
-30.0
 62
     5
 63
     7
 74
     1
 91
        4
 64
     7
 65
   257
 75
     1
175
     1
 42
1.0
 92
        0
 66
   257
 43
1.0
 76
     1
 77
     6
 78
     2
 67
     7
 79
     5
170
     0
171
     0
290
     0
174
     0
 93
        1
 44
0.0
173
     0
291
     0
 45
0.0
1001
ACAD
1000
AcDbSavedByObjectVersion
1070
     0
  0
VISUALSTYLE
  5
1087
102
{ACAD_XDICTIONARY
360
1928
102
}
102
{ACAD_REACTORS
330
1082
102
}
330
1082
100
AcDbVisualStyle
  2
Basic
 70
     7
 71
     1
 72
     0
 73
     1
 90
        0
 40
-0.6
 41
-30.0
 62
     5
 63
     7
 74
     0
 91
        4
 64
     7
 65
   257
 75
     1
175
     1
 42
1.0
 92
        8
 66
     7
 43
1.0
 76
     1
 77
     6
 78
     2
 67
     7
 79
     5
170
     0
171
     0
290
     0
174
     0
 93
        1
 44
0.0
173
     0
291
     1
 45
0.0
1001
ACAD
1000
AcDbSavedByObjectVersion
1070
     0
  0
VISUALSTYLE
  5
108E
102
{ACAD_XDICTIONARY
360
1936
102
}
102
{ACAD_REACTORS
330
1082
102
}
330
1082
100
AcDbVisualStyle
  2
Brighten
 70
    12
 71
     2
 72
     2
 73
     0
 90
        0
 40
-0.6
 41
-30.0
 62
     5
 63
     7
 74
     1
 91
        4
 64
     7
 65
   257
 75
     1
175
     1
 42
1.0
 92
        8
 66
     7
 43
1.0
 76
     1
 77
     6
 78
     2
 67
     7
 79
     5
170
     0
171
     0
290
     0
174
     0
 93
        1
 44
50.0
173
     0
291
     1
 45
0.0
1001
ACAD
1000
AcDbSavedByObjectVersion
1070
     0
  0
VISUALSTYLE
  5
1092
102
{ACAD_XDICTIONARY
360
193E
102
}
102
{ACAD_REACTORS
330
1082
102
}
330
1082
100
AcDbVisualStyle
  2
ColorChange
 70
    16
 71
     2
 72
     2
 73
     3
 90
        0
 40
-0.6
 41
-30.0
 62
     5
 63
     8
 74
     1
 91
        4
 64
     7
 65
   257
 75
     1
175
     1
 42
1.0
 92
        8
 66
     8
 43
1.0
 76
     1
 77
     6
 78
     2
 67
     7
 79
     5
170
     0
171
     0
290
     0
174
     0
 93
        1
 44
0.0
173
     0
291
     1
 45
0.0
1001
ACAD
1000
AcDbSavedByObjectVersion
1070
     0
  0
VISUALSTYLE
  5
108B
102
{ACAD_XDICTIONARY
360
1930
102
}
102
{ACAD_REACTORS
330
1082
102
}
330
1082
100
AcDbVisualStyle
  2
Conceptual
 70
     9
 71
     3
 72
     2
 73
     0
 90
        0
 40
-0.6
 41
-30.0
 62
     5
 63
     7
 74
     2
 91
        2
 64
     7
 65
   257
 75
     1
175
     1
 42
179.0
 92
        8
 66
     7
 43
1.0
 76
     1
 77
     6
 78
     2
 67
     7
 79
     3
170
     0
171
     0
290
     0
174
     0
 93
        1
 44
0.0
173
     0
291
     0
 45
0.0
1001
ACAD
1000
AcDbSavedByObjectVersion
1070
     0
  0
VISUALSTYLE
  5
108D
102
{ACAD_XDICTIONARY
360
1934
102
}
102
{ACAD_REACTORS
330
1082
102
}
330
1082
100
AcDbVisualStyle
  2
Dim
 70
    11
 71
     2
 72
     2
 73
     0
 90
        0
 40
-0.6
 41
-30.0
 62
     5
 63
     7
 74
     1
 91
        4
 64
     7
 65
   257
 75
     1
175
     1
 42
1.0
 92
        8
 66
     7
 43
1.0
 76
     1
 77
     6
 78
     2
 67
     7
 79
     5
170
     0
171
     0
290
     0
174
     0
 93
        1
 44
-50.0
173
     0
291
     1
 45
0.0
1001
ACAD
1000
AcDbSavedByObjectVersion
1070
     0
  0
VISUALSTYLE
  5
1095
102
{ACAD_XDICTIONARY
360
1944
102
}
102
{ACAD_REACTORS
330
1082
102
}
330
1082
100
AcDbVisualStyle
  2
EdgeColorOff
 70
    22
 71
     2
 72
     2
 73
     0
 90
        0
 40
-0.6
 41
-30.0
 62
     5
 63
     7
 74
     1
 91
        4
 64
     7
 65
   257
 75
     1
175
     1
 42
1.0
 92
        8
 66
     7
 43
1.0
 76
     1
 77
     6
 78
     2
 67
     7
 79
     5
170
     0
171
     0
290
     0
174
     0
 93
        1
 44
0.0
173
     0
291
     1
 45
0.0
1001
ACAD
1000
AcDbSavedByObjectVersion
1070
     0
  0
VISUALSTYLE
  5
1091
102
{ACAD_XDICTIONARY
360
193C
102
}
102
{ACAD_REACTORS
330
1082
102
}
330
1082
100
AcDbVisualStyle
  2
Facepattern
 70
    15
 71
     2
 72
     2
 73
     0
 90
        0
 40
-0.6
 41
-30.0
 62
     5
 63
     7
 74
     1
 91
        4
 64
     7
 65
   257
 75
     1
175
     1
 42
1.0
 92
        8
 66
     7
 43
1.0
 76
     1
 77
     6
 78
     2
 67
     7
 79
     5
170
     0
171
     0
290
     0
174
     0
 93
        1
 44
0.0
173
     0
291
     1
 45
0.0
1001
ACAD
1000
AcDbSavedByObjectVersion
1070
     0
  0
VISUALSTYLE
  5
1083
102
{ACAD_XDICTIONARY
360
1920
102
}
102
{ACAD_REACTORS
330
1082
102
}
330
1082
100
AcDbVisualStyle
  2
Flat
 70
     0
 71
     2
 72
     1
 73
     1
 90
        2
 40
-0.6
 41
30.0
 62
     5
 63
     7
 74
     0
 91
        4
 64
     7
 65
   257
 75
     1
175
     1
 42
1.0
 92
        8
 66
     7
 43
1.0
 76
     1
 77
     6
 78
     2
 67
     7
 79
     5
170
     0
171
     0
290
     0
174
     0
 93
       13
 44
0.0
173
     0
291
     1
 45
0.0
1001
ACAD
1000
AcDbSavedByObjectVersion
1070
     0
  0
VISUALSTYLE
  5
1084
102
{ACAD_XDICTIONARY
360
1922
102
}
102
{ACAD_REACTORS
330
1082
102
}
330
1082
100
AcDbVisualStyle
  2
FlatWithEdges
 70
     1
 71
     2
 72
     1
 73
     1
 90
        2
 40
-0.6
 41
30.0
 62
     5
 63
     7
 74
     1
 91
        4
 64
     7
 65
   257
 75
     1
175
     1
 42
1.0
 92
        0
 66
   257
 43
1.0
 76
     1
 77
     6
 78
     2
 67
     7
 79
     5
170
     0
171
     0
290
     0
174
     0
 93
       13
 44
0.0
173
     0
291
     1
 45
0.0
1001
ACAD
1000
AcDbSavedByObjectVersion
1070
     0
  0
VISUALSTYLE
  5
1085
102
{ACAD_XDICTIONARY
360
1924
102
}
102
{ACAD_REACTORS
330
1082
102
}
330
1082
100
AcDbVisualStyle
  2
Gouraud
 70
     2
 71
     2
 72
     2
 73
     1
 90
        2
 40
-0.6
 41
30.0
 62
     5
 63
     7
 74
     0
 91
        4
 64
     7
 65
   257
 75
     1
175
     1
 42
1.0
 92
        0
 66
     7
 43
1.0
 76
     1
 77
     6
 78
     2
 67
     7
 79
     5
170
     0
171
     0
290
     0
174
     0
 93
       13
 44
0.0
173
     0
291
     1
 45
0.0
1001
ACAD
1000
AcDbSavedByObjectVersion
1070
     0
  0
VISUALSTYLE
  5
1086
102
{ACAD_XDICTIONARY
360
1926
102
}
102
{ACAD_REACTORS
330
1082
102
}
330
1082
100
AcDbVisualStyle
  2
GouraudWithEdges
 70
     3
 71
     2
 72
     2
 73
     1
 90
        2
 40
-0.6
 41
30.0
 62
     5
 63
     7
 74
     1
 91
        4
 64
     7
 65
   257
 75
     1
175
     1
 42
1.0
 92
        0
 66
   257
 43
1.0
 76
     1
 77
     6
 78
     2
 67
     7
 79
     5
170
     0
171
     0
290
     0
174
     0
 93
       13
 44
0.0
173
     0
291
     1
 45
0.0
1001
ACAD
1000
AcDbSavedByObjectVersion
1070
     0
  0
VISUALSTYLE
  5
1093
102
{ACAD_XDICTIONARY
360
1940
102
}
102
{ACAD_REACTORS
330
1082
102
}
330
1082
100
AcDbVisualStyle
  2
JitterOff
 70
    20
 71
     2
 72
     2
 73
     0
 90
        0
 40
-0.6
 41
-30.0
 62
     5
 63
     7
 74
     1
 91
        4
 64
     7
 65
   257
 75
     1
175
     1
 42
1.0
 92
       10
 66
     7
 43
1.0
 76
     1
 77
     6
 78
     2
 67
     7
 79
     5
170
     0
171
     0
290
     0
174
     0
 93
        1
 44
0.0
173
     0
291
     1
 45
0.0
1001
ACAD
1000
AcDbSavedByObjectVersion
1070
     0
  0
VISUALSTYLE
  5
1090
102
{ACAD_XDICTIONARY
360
193A
102
}
102
{ACAD_REACTORS
330
1082
102
}
330
1082
100
AcDbVisualStyle
  2
Linepattern
 70
    14
 71
     2
 72
     2
 73
     0
 90
        0
 40
-0.6
 41
-30.0
 62
     5
 63
     7
 74
     1
 91
        4
 64
     7
 65
   257
 75
     7
175
     7
 42
1.0
 92
        8
 66
     7
 43
1.0
 76
     1
 77
     6
 78
     2
 67
     7
 79
     5
170
     0
171
     0
290
     0
174
     0
 93
        1
 44
0.0
173
     0
291
     1
 45
0.0
1001
ACAD
1000
AcDbSavedByObjectVersion
1070
     0
  0
VISUALSTYLE
  5
1094
102
{ACAD_XDICTIONARY
360
1942
102
}
102
{ACAD_REACTORS
330
1082
102
}
330
1082
100
AcDbVisualStyle
  2
OverhangOff
 70
    21
 71
     2
 72
     2
 73
     0
 90
        0
 40
-0.6
 41
-30.0
 62
     5
 63
     7
 74
     1
 91
        4
 64
     7
 65
   257
 75
     1
175
     1
 42
1.0
 92
        9
 66
     7
 43
1.0
 76
     1
 77
     6
 78
     2
 67
     7
 79
     5
170
     0
171
     0
290
     0
174
     0
 93
        1
 44
0.0
173
     0
291
     1
 45
0.0
1001
ACAD
1000
AcDbSavedByObjectVersion
1070
     0
  0
VISUALSTYLE
  5
108C
102
{ACAD_XDICTIONARY
360
1932
102
}
102
{ACAD_REACTORS
330
1082
102
}
330
1082
100
AcDbVisualStyle
  2
Realistic
 70
     8
 71
     2
 72
     2
 73
     0
 90
        0
 40
-0.6
 41
-30.0
 62
     5
 63
     7
 74
     1
 91
        0
 64
     7
 65
   257
 75
     1
175
     1
 42
1.0
 92
        8
 66
     8
 43
1.0
 76
     1
 77
     6
 78
     2
 67
     7
 79
     5
170
     0
171
     0
290
     0
174
     0
 93
       13
 44
0.0
173
     0
291
     0
 45
0.0
1001
ACAD
1000
AcDbSavedByObjectVersion
1070
     0
  0
VISUALSTYLE
  5
108F
102
{ACAD_XDICTIONARY
360
1938
102
}
102
{ACAD_REACTORS
330
1082
102
}
330
1082
100
AcDbVisualStyle
  2
Thicken
 70
    13
 71
     2
 72
     2
 73
     0
 90
        0
 40
-0.6
 41
-30.0
 62
     5
 63
     7
 74
     1
 91
        4
 64
     7
 65
   257
 75
     1
175
     1
 42
1.0
 92
       12
 66
     7
 43
1.0
 76
     1
 77
     6
 78
     2
 67
     7
 79
     5
170
     0
171
     0
290
     0
174
     0
 93
        1
 44
0.0
173
     0
291
     1
 45
0.0
1001
ACAD
1000
AcDbSavedByObjectVersion
1070
     0
  0
DICTIONARYVAR
  5
1904
102
{ACAD_REACTORS
330
3D
102
}
330
3D
100
DictionaryVariables
280
     0
  1
1:1
  0
DICTIONARYVAR
  5
1903
102
{ACAD_REACTORS
330
3D
102
}
330
3D
100
DictionaryVariables
280
     0
  1
STANDARD
  0
DICTIONARYVAR
  5
1049
102
{ACAD_REACTORS
330
3D
102
}
330
3D
100
DictionaryVariables
280
     0
  1
STANDARD
  0
DICTIONARYVAR
  5
3F
102
{ACAD_REACTORS
330
3D
102
}
330
3D
100
DictionaryVariables
280
     0
  1
2
  0
DICTIONARYVAR
  5
3E
102
{ACAD_REACTORS
330
3D
102
}
330
3D
100
DictionaryVariables
280
     0
  1
1
  0
DICTIONARYVAR
  5
1906
102
{ACAD_REACTORS
330
3D
102
}
330
3D
100
DictionaryVariables
280
     0
  1
0
  0
DICTIONARYVAR
  5
1905
102
{ACAD_REACTORS
330
3D
102
}
330
3D
100
DictionaryVariables
280
     0
  1
127
  0
DICTIONARYVAR
  5
1910
102
{ACAD_REACTORS
330
3D
102
}
330
3D
100
DictionaryVariables
280
     0
  1
2
  0
XRECORD
  5
1067
102
{ACAD_REACTORS
330
1066
102
}
330
1066
100
AcDbXrecord
280
     1
  0
DICTIONARY
  5
1916
330
1E
100
AcDbDictionary
280
     1
281
     1
  3
ACAD_XREC_ROUNDTRIP
360
1917
  0
DICTIONARY
  5
191A
330
26
100
AcDbDictionary
280
     1
281
     1
  3
ACAD_XREC_ROUNDTRIP
360
191B
  0
DICTIONARY
  5
1918
330
22
100
AcDbDictionary
280
     1
281
     1
  3
ACAD_XREC_ROUNDTRIP
360
1919
  0
DICTIONARY
  5
1073
330
1072
100
AcDbDictionary
280
     1
281
     1
  3
ACAD_XREC_ROUNDTRIP
360
191E
  3
BUMPTILE
360
1075
  3
DIFFUSETILE
360
1074
  3
OPACITYTILE
360
1078
  3
REFLECTIONTILE
360
1077
  3
REFRACTIONTILE
360
1079
  3
SPECULARTILE
360
1076
  0
DICTIONARY
  5
106B
330
106A
100
AcDbDictionary
280
     1
281
     1
  3
ACAD_XREC_ROUNDTRIP
360
191D
  3
BUMPTILE
360
106D
  3
DIFFUSETILE
360
106C
  3
OPACITYTILE
360
1070
  3
REFLECTIONTILE
360
106F
  3
REFRACTIONTILE
360
1071
  3
SPECULARTILE
360
106E
  0
DICTIONARY
  5
107B
330
107A
100
AcDbDictionary
280
     1
281
     1
  3
ACAD_XREC_ROUNDTRIP
360
191F
  3
BUMPTILE
360
107D
  3
DIFFUSETILE
360
107C
  3
OPACITYTILE
360
1080
  3
REFLECTIONTILE
360
107F
  3
REFRACTIONTILE
360
1081
  3
SPECULARTILE
360
107E
  0
DICTIONARY
  5
18C6
330
EE8
100
AcDbDictionary
280
     1
281
     1
  3
ACAD_ROUNDTRIP_2008_TABLESTYLE_CELLSTYLEMAP
360
1911
  3
ACAD_XREC_ROUNDTRIP
360
191C
  0
DICTIONARY
  5
192A
330
1088
100
AcDbDictionary
280
     1
281
     1
  3
ACAD_XREC_ROUNDTRIP
360
192B
  0
DICTIONARY
  5
192E
330
108A
100
AcDbDictionary
280
     1
281
     1
  3
ACAD_XREC_ROUNDTRIP
360
192F
  0
DICTIONARY
  5
192C
330
1089
100
AcDbDictionary
280
     1
281
     1
  3
ACAD_XREC_ROUNDTRIP
360
192D
  0
DICTIONARY
  5
1928
330
1087
100
AcDbDictionary
280
     1
281
     1
  3
ACAD_XREC_ROUNDTRIP
360
1929
  0
DICTIONARY
  5
1936
330
108E
100
AcDbDictionary
280
     1
281
     1
  3
ACAD_XREC_ROUNDTRIP
360
1937
  0
DICTIONARY
  5
193E
330
1092
100
AcDbDictionary
280
     1
281
     1
  3
ACAD_XREC_ROUNDTRIP
360
193F
  0
DICTIONARY
  5
1930
330
108B
100
AcDbDictionary
280
     1
281
     1
  3
ACAD_XREC_ROUNDTRIP
360
1931
  0
DICTIONARY
  5
1934
330
108D
100
AcDbDictionary
280
     1
281
     1
  3
ACAD_XREC_ROUNDTRIP
360
1935
  0
DICTIONARY
  5
1944
330
1095
100
AcDbDictionary
280
     1
281
     1
  3
ACAD_XREC_ROUNDTRIP
360
1945
  0
DICTIONARY
  5
193C
330
1091
100
AcDbDictionary
280
     1
281
     1
  3
ACAD_XREC_ROUNDTRIP
360
193D
  0
DICTIONARY
  5
1920
330
1083
100
AcDbDictionary
280
     1
281
     1
  3
ACAD_XREC_ROUNDTRIP
360
1921
  0
DICTIONARY
  5
1922
330
1084
100
AcDbDictionary
280
     1
281
     1
  3
ACAD_XREC_ROUNDTRIP
360
1923
  0
DICTIONARY
  5
1924
330
1085
100
AcDbDictionary
280
     1
281
     1
  3
ACAD_XREC_ROUNDTRIP
360
1925
  0
DICTIONARY
  5
1926
330
1086
100
AcDbDictionary
280
     1
281
     1
  3
ACAD_XREC_ROUNDTRIP
360
1927
  0
DICTIONARY
  5
1940
330
1093
100
AcDbDictionary
280
     1
281
     1
  3
ACAD_XREC_ROUNDTRIP
360
1941
  0
DICTIONARY
  5
193A
330
1090
100
AcDbDictionary
280
     1
281
     1
  3
ACAD_XREC_ROUNDTRIP
360
193B
  0
DICTIONARY
  5
1942
330
1094
100
AcDbDictionary
280
     1
281
     1
  3
ACAD_XREC_ROUNDTRIP
360
1943
  0
DICTIONARY
  5
1932
330
108C
100
AcDbDictionary
280
     1
281
     1
  3
ACAD_XREC_ROUNDTRIP
360
1933
  0
DICTIONARY
  5
1938
330
108F
100
AcDbDictionary
280
     1
281
     1
  3
ACAD_XREC_ROUNDTRIP
360
1939
  0
XRECORD
  5
1917
102
{ACAD_REACTORS
330
1916
102
}
330
1916
100
AcDbXrecord
280
     1
102
SHADEPLOT
 70
     0
102
SHADEPLOTRESLEVEL
 70
     2
102
SHADEPLOTCUSTOMDPI
 70
   300
  0
XRECORD
  5
191B
102
{ACAD_REACTORS
330
191A
102
}
330
191A
100
AcDbXrecord
280
     1
102
SHADEPLOT
 70
     0
102
SHADEPLOTRESLEVEL
 70
     2
102
SHADEPLOTCUSTOMDPI
 70
   300
  0
XRECORD
  5
1919
102
{ACAD_REACTORS
330
1918
102
}
330
1918
100
AcDbXrecord
280
     1
102
SHADEPLOT
 70
     0
102
SHADEPLOTRESLEVEL
 70
     2
102
SHADEPLOTCUSTOMDPI
 70
   300
  0
XRECORD
  5
191E
102
{ACAD_REACTORS
330
1073
102
}
330
1073
100
AcDbXrecord
280
     1
102
MATERIAL
148
0.0
149
0.0
149
0.0
 93
        0
 94
      127
282
     0
 72
     0
 77
     0
171
     0
175
     0
179
     0
273
     0
  0
XRECORD
  5
1075
102
{ACAD_REACTORS
330
1073
102
}
330
1073
100
AcDbXrecord
280
     1
270
     1
271
     1
  0
XRECORD
  5
1074
102
{ACAD_REACTORS
330
1073
102
}
330
1073
100
AcDbXrecord
280
     1
270
     1
271
     1
  0
XRECORD
  5
1078
102
{ACAD_REACTORS
330
1073
102
}
330
1073
100
AcDbXrecord
280
     1
270
     1
271
     1
  0
XRECORD
  5
1077
102
{ACAD_REACTORS
330
1073
102
}
330
1073
100
AcDbXrecord
280
     1
270
     1
271
     1
  0
XRECORD
  5
1079
102
{ACAD_REACTORS
330
1073
102
}
330
1073
100
AcDbXrecord
280
     1
270
     1
271
     1
  0
XRECORD
  5
1076
102
{ACAD_REACTORS
330
1073
102
}
330
1073
100
AcDbXrecord
280
     1
270
     1
271
     1
  0
XRECORD
  5
191D
102
{ACAD_REACTORS
330
106B
102
}
330
106B
100
AcDbXrecord
280
     1
102
MATERIAL
148
0.0
149
0.0
149
0.0
 93
        0
 94
      127
282
     0
 72
     0
 77
     0
171
     0
175
     0
179
     0
273
     0
  0
XRECORD
  5
106D
102
{ACAD_REACTORS
330
106B
102
}
330
106B
100
AcDbXrecord
280
     1
270
     1
271
     1
  0
XRECORD
  5
106C
102
{ACAD_REACTORS
330
106B
102
}
330
106B
100
AcDbXrecord
280
     1
270
     1
271
     1
  0
XRECORD
  5
1070
102
{ACAD_REACTORS
330
106B
102
}
330
106B
100
AcDbXrecord
280
     1
270
     1
271
     1
  0
XRECORD
  5
106F
102
{ACAD_REACTORS
330
106B
102
}
330
106B
100
AcDbXrecord
280
     1
270
     1
271
     1
  0
XRECORD
  5
1071
102
{ACAD_REACTORS
330
106B
102
}
330
106B
100
AcDbXrecord
280
     1
270
     1
271
     1
  0
XRECORD
  5
106E
102
{ACAD_REACTORS
330
106B
102
}
330
106B
100
AcDbXrecord
280
     1
270
     1
271
     1
  0
XRECORD
  5
191F
102
{ACAD_REACTORS
330
107B
102
}
330
107B
100
AcDbXrecord
280
     1
102
MATERIAL
148
0.0
149
0.0
149
0.0
 93
        0
 94
      127
282
     0
 72
     0
 77
     0
171
     0
175
     0
179
     0
273
     0
  0
XRECORD
  5
107D
102
{ACAD_REACTORS
330
107B
102
}
330
107B
100
AcDbXrecord
280
     1
270
     1
271
     1
  0
XRECORD
  5
107C
102
{ACAD_REACTORS
330
107B
102
}
330
107B
100
AcDbXrecord
280
     1
270
     1
271
     1
  0
XRECORD
  5
1080
102
{ACAD_REACTORS
330
107B
102
}
330
107B
100
AcDbXrecord
280
     1
270
     1
271
     1
  0
XRECORD
  5
107F
102
{ACAD_REACTORS
330
107B
102
}
330
107B
100
AcDbXrecord
280
     1
270
     1
271
     1
  0
XRECORD
  5
1081
102
{ACAD_REACTORS
330
107B
102
}
330
107B
100
AcDbXrecord
280
     1
270
     1
271
     1
  0
XRECORD
  5
107E
102
{ACAD_REACTORS
330
107B
102
}
330
107B
100
AcDbXrecord
280
     1
270
     1
271
     1
  0
CELLSTYLEMAP
  5
1911
102
{ACAD_REACTORS
330
18C6
102
}
330
18C6
100
AcDbCellStyleMap
 90
        3
300
CELLSTYLE
  1
TABLEFORMAT_BEGIN
 90
        5
170
     1
 91
        0
 92
    32768
 62
   257
 93
        1
300
CONTENTFORMAT
  1
CONTENTFORMAT_BEGIN
 90
        0
 91
        0
 92
        4
 93
        0
300

 40
0.0
140
1.0
 94
        5
 62
     0
340
11
144
6.0
309
CONTENTFORMAT_END
171
     1
301
MARGIN
  1
CELLMARGIN_BEGIN
 40
1.5
 40
1.5
 40
1.5
 40
1.5
 40
0.18
 40
0.18
309
CELLMARGIN_END
 94
        6
 95
        1
302
GRIDFORMAT
  1
GRIDFORMAT_BEGIN
 90
        0
 91
        1
 62
     0
 92
       -2
340
0
 93
        0
 40
0.045
309
GRIDFORMAT_END
 95
        2
302
GRIDFORMAT
  1
GRIDFORMAT_BEGIN
 90
        0
 91
        1
 62
     0
 92
       -2
340
0
 93
        0
 40
0.045
309
GRIDFORMAT_END
 95
        4
302
GRIDFORMAT
  1
GRIDFORMAT_BEGIN
 90
        0
 91
        1
 62
     0
 92
       -2
340
0
 93
        0
 40
0.045
309
GRIDFORMAT_END
 95
        8
302
GRIDFORMAT
  1
GRIDFORMAT_BEGIN
 90
        0
 91
        1
 62
     0
 92
       -2
340
0
 93
        0
 40
0.045
309
GRIDFORMAT_END
 95
       16
302
GRIDFORMAT
  1
GRIDFORMAT_BEGIN
 90
        0
 91
        1
 62
     0
 92
       -2
340
0
 93
        0
 40
0.045
309
GRIDFORMAT_END
 95
       32
302
GRIDFORMAT
  1
GRIDFORMAT_BEGIN
 90
        0
 91
        1
 62
     0
 92
       -2
340
0
 93
        0
 40
0.045
309
GRIDFORMAT_END
309
TABLEFORMAT_END
  1
CELLSTYLE_BEGIN
 90
        1
 91
        1
300
_TITLE
309
CELLSTYLE_END
300
CELLSTYLE
  1
TABLEFORMAT_BEGIN
 90
        5
170
     1
 91
        0
 92
        0
 62
   257
 93
        1
300
CONTENTFORMAT
  1
CONTENTFORMAT_BEGIN
 90
        0
 91
        0
 92
        4
 93
        0
300

 40
0.0
140
1.0
 94
        5
 62
     0
340
11
144
4.5
309
CONTENTFORMAT_END
171
     1
301
MARGIN
  1
CELLMARGIN_BEGIN
 40
1.5
 40
1.5
 40
1.5
 40
1.5
 40
0.18
 40
0.18
309
CELLMARGIN_END
 94
        6
 95
        1
302
GRIDFORMAT
  1
GRIDFORMAT_BEGIN
 90
        0
 91
        1
 62
     0
 92
       -2
340
0
 93
        0
 40
0.045
309
GRIDFORMAT_END
 95
        2
302
GRIDFORMAT
  1
GRIDFORMAT_BEGIN
 90
        0
 91
        1
 62
     0
 92
       -2
340
0
 93
        0
 40
0.045
309
GRIDFORMAT_END
 95
        4
302
GRIDFORMAT
  1
GRIDFORMAT_BEGIN
 90
        0
 91
        1
 62
     0
 92
       -2
340
0
 93
        0
 40
0.045
309
GRIDFORMAT_END
 95
        8
302
GRIDFORMAT
  1
GRIDFORMAT_BEGIN
 90
        0
 91
        1
 62
     0
 92
       -2
340
0
 93
        0
 40
0.045
309
GRIDFORMAT_END
 95
       16
302
GRIDFORMAT
  1
GRIDFORMAT_BEGIN
 90
        0
 91
        1
 62
     0
 92
       -2
340
0
 93
        0
 40
0.045
309
GRIDFORMAT_END
 95
       32
302
GRIDFORMAT
  1
GRIDFORMAT_BEGIN
 90
        0
 91
        1
 62
     0
 92
       -2
340
0
 93
        0
 40
0.045
309
GRIDFORMAT_END
309
TABLEFORMAT_END
  1
CELLSTYLE_BEGIN
 90
        2
 91
        1
300
_HEADER
309
CELLSTYLE_END
300
CELLSTYLE
  1
TABLEFORMAT_BEGIN
 90
        5
170
     1
 91
        0
 92
        0
 62
   257
 93
        1
300
CONTENTFORMAT
  1
CONTENTFORMAT_BEGIN
 90
        0
 91
        0
 92
        4
 93
        0
300

 40
0.0
140
1.0
 94
        2
 62
     0
340
11
144
4.5
309
CONTENTFORMAT_END
171
     1
301
MARGIN
  1
CELLMARGIN_BEGIN
 40
1.5
 40
1.5
 40
1.5
 40
1.5
 40
0.18
 40
0.18
309
CELLMARGIN_END
 94
        6
 95
        1
302
GRIDFORMAT
  1
GRIDFORMAT_BEGIN
 90
        0
 91
        1
 62
     0
 92
       -2
340
0
 93
        0
 40
0.045
309
GRIDFORMAT_END
 95
        2
302
GRIDFORMAT
  1
GRIDFORMAT_BEGIN
 90
        0
 91
        1
 62
     0
 92
       -2
340
0
 93
        0
 40
0.045
309
GRIDFORMAT_END
 95
        4
302
GRIDFORMAT
  1
GRIDFORMAT_BEGIN
 90
        0
 91
        1
 62
     0
 92
       -2
340
0
 93
        0
 40
0.045
309
GRIDFORMAT_END
 95
        8
302
GRIDFORMAT
  1
GRIDFORMAT_BEGIN
 90
        0
 91
        1
 62
     0
 92
       -2
340
0
 93
        0
 40
0.045
309
GRIDFORMAT_END
 95
       16
302
GRIDFORMAT
  1
GRIDFORMAT_BEGIN
 90
        0
 91
        1
 62
     0
 92
       -2
340
0
 93
        0
 40
0.045
309
GRIDFORMAT_END
 95
       32
302
GRIDFORMAT
  1
GRIDFORMAT_BEGIN
 90
        0
 91
        1
 62
     0
 92
       -2
340
0
 93
        0
 40
0.045
309
GRIDFORMAT_END
309
TABLEFORMAT_END
  1
CELLSTYLE_BEGIN
 90
        3
 91
        2
300
_DATA
309
CELLSTYLE_END
  0
XRECORD
  5
191C
102
{ACAD_REACTORS
330
18C6
102
}
330
18C6
100
AcDbXrecord
280
     1
102
ACAD_ROUNDTRIP_PRE2007_TABLESTYLE
 90
        4
 91
        0
  1

 92
        4
 93
        0
  2

 94
        4
 95
        0
  3

  0
XRECORD
  5
192B
102
{ACAD_REACTORS
330
192A
102
}
330
192A
100
AcDbXrecord
280
     1
102
RTVSPropertyOp0
 70
     1
102
RTVSPropertyOp1
 70
     1
102
RTVSPropertyOp2
 70
     1
102
RTVSPropertyOp3
 70
     1
102
RTVSPropertyOp4
 70
     1
102
RTVSPropertyOp5
 70
     1
102
RTVSPropertyOp6
 70
     1
102
RTVSPropertyOp7
 70
     1
102
RTVSPropertyOp8
 70
     1
102
RTVSPropertyOp9
 70
     1
102
RTVSPropertyOp10
 70
     1
102
RTVSPropertyOp11
 70
     1
102
RTVSPropertyOp12
 70
     1
102
RTVSPropertyOp13
 70
     1
102
RTVSPropertyOp14
 70
     1
102
RTVSPropertyOp15
 70
     1
102
RTVSPropertyOp16
 70
     1
102
RTVSPropertyOp17
 70
     1
102
RTVSPropertyOp18
 70
     1
102
RTVSPropertyOp19
 70
     1
102
RTVSPropertyOp20
 70
     1
102
RTVSPropertyOp21
 70
     1
102
RTVSPropertyOp22
 70
     1
102
RTVSPropertyOp23
 70
     1
102
RTVSPropertyOp24
 70
     1
102
RTVSPropertyOp25
 70
     1
102
RTVSPropertyOp26
 70
     1
102
RTVSPropertyOp27
 70
     1
  0
XRECORD
  5
192F
102
{ACAD_REACTORS
330
192E
102
}
330
192E
100
AcDbXrecord
280
     1
102
RTVSPropertyOp0
 70
     1
102
RTVSPropertyOp1
 70
     1
102
RTVSPropertyOp2
 70
     1
102
RTVSPropertyOp3
 70
     1
102
RTVSPropertyOp4
 70
     1
102
RTVSPropertyOp5
 70
     1
102
RTVSPropertyOp6
 70
     1
102
RTVSPropertyOp7
 70
     1
102
RTVSPropertyOp8
 70
     1
102
RTVSPropertyOp9
 70
     1
102
RTVSPropertyOp10
 70
     1
102
RTVSPropertyOp11
 70
     1
102
RTVSPropertyOp12
 70
     1
102
RTVSPropertyOp13
 70
     1
102
RTVSPropertyOp14
 70
     1
102
RTVSPropertyOp15
 70
     1
102
RTVSPropertyOp16
 70
     1
102
RTVSPropertyOp17
 70
     1
102
RTVSPropertyOp18
 70
     1
102
RTVSPropertyOp19
 70
     1
102
RTVSPropertyOp20
 70
     1
102
RTVSPropertyOp21
 70
     1
102
RTVSPropertyOp22
 70
     1
102
RTVSPropertyOp23
 70
     1
102
RTVSPropertyOp24
 70
     1
102
RTVSPropertyOp25
 70
     1
102
RTVSPropertyOp26
 70
     1
102
RTVSPropertyOp27
 70
     1
  0
XRECORD
  5
192D
102
{ACAD_REACTORS
330
192C
102
}
330
192C
100
AcDbXrecord
280
     1
102
RTVSPropertyOp0
 70
     1
102
RTVSPropertyOp1
 70
     1
102
RTVSPropertyOp2
 70
     1
102
RTVSPropertyOp3
 70
     1
102
RTVSPropertyOp4
 70
     1
102
RTVSPropertyOp5
 70
     1
102
RTVSPropertyOp6
 70
     1
102
RTVSPropertyOp7
 70
     1
102
RTVSPropertyOp8
 70
     1
102
RTVSPropertyOp9
 70
     1
102
RTVSPropertyOp10
 70
     1
102
RTVSPropertyOp11
 70
     1
102
RTVSPropertyOp12
 70
     1
102
RTVSPropertyOp13
 70
     1
102
RTVSPropertyOp14
 70
     1
102
RTVSPropertyOp15
 70
     1
102
RTVSPropertyOp16
 70
     1
102
RTVSPropertyOp17
 70
     1
102
RTVSPropertyOp18
 70
     1
102
RTVSPropertyOp19
 70
     1
102
RTVSPropertyOp20
 70
     1
102
RTVSPropertyOp21
 70
     1
102
RTVSPropertyOp22
 70
     1
102
RTVSPropertyOp23
 70
     1
102
RTVSPropertyOp24
 70
     1
102
RTVSPropertyOp25
 70
     1
102
RTVSPropertyOp26
 70
     1
102
RTVSPropertyOp27
 70
     1
  0
XRECORD
  5
1929
102
{ACAD_REACTORS
330
1928
102
}
330
1928
100
AcDbXrecord
280
     1
102
RTVSPropertyOp0
 70
     1
102
RTVSPropertyOp1
 70
     1
102
RTVSPropertyOp2
 70
     1
102
RTVSPropertyOp3
 70
     1
102
RTVSPropertyOp4
 70
     1
102
RTVSPropertyOp5
 70
     1
102
RTVSPropertyOp6
 70
     1
102
RTVSPropertyOp7
 70
     1
102
RTVSPropertyOp8
 70
     1
102
RTVSPropertyOp9
 70
     1
102
RTVSPropertyOp10
 70
     1
102
RTVSPropertyOp11
 70
     1
102
RTVSPropertyOp12
 70
     1
102
RTVSPropertyOp13
 70
     1
102
RTVSPropertyOp14
 70
     1
102
RTVSPropertyOp15
 70
     1
102
RTVSPropertyOp16
 70
     1
102
RTVSPropertyOp17
 70
     1
102
RTVSPropertyOp18
 70
     1
102
RTVSPropertyOp19
 70
     1
102
RTVSPropertyOp20
 70
     1
102
RTVSPropertyOp21
 70
     1
102
RTVSPropertyOp22
 70
     1
102
RTVSPropertyOp23
 70
     1
102
RTVSPropertyOp24
 70
     1
102
RTVSPropertyOp25
 70
     1
102
RTVSPropertyOp26
 70
     1
102
RTVSPropertyOp27
 70
     1
  0
XRECORD
  5
1937
102
{ACAD_REACTORS
330
1936
102
}
330
1936
100
AcDbXrecord
280
     1
102
RTVSPropertyOp0
 70
     1
102
RTVSPropertyOp1
 70
     1
102
RTVSPropertyOp2
 70
     1
102
RTVSPropertyOp3
 70
     1
102
RTVSPropertyOp4
 70
     1
102
RTVSPropertyOp5
 70
     1
102
RTVSPropertyOp6
 70
     1
102
RTVSPropertyOp7
 70
     1
102
RTVSPropertyOp8
 70
     1
102
RTVSPropertyOp9
 70
     1
102
RTVSPropertyOp10
 70
     1
102
RTVSPropertyOp11
 70
     1
102
RTVSPropertyOp12
 70
     1
102
RTVSPropertyOp13
 70
     1
102
RTVSPropertyOp14
 70
     1
102
RTVSPropertyOp15
 70
     1
102
RTVSPropertyOp16
 70
     1
102
RTVSPropertyOp17
 70
     1
102
RTVSPropertyOp18
 70
     1
102
RTVSPropertyOp19
 70
     1
102
RTVSPropertyOp20
 70
     1
102
RTVSPropertyOp21
 70
     1
102
RTVSPropertyOp22
 70
     1
102
RTVSPropertyOp23
 70
     1
102
RTVSPropertyOp24
 70
     1
102
RTVSPropertyOp25
 70
     1
102
RTVSPropertyOp26
 70
     1
102
RTVSPropertyOp27
 70
     1
  0
XRECORD
  5
193F
102
{ACAD_REACTORS
330
193E
102
}
330
193E
100
AcDbXrecord
280
     1
102
RTVSPropertyOp0
 70
     1
102
RTVSPropertyOp1
 70
     1
102
RTVSPropertyOp2
 70
     1
102
RTVSPropertyOp3
 70
     1
102
RTVSPropertyOp4
 70
     1
102
RTVSPropertyOp5
 70
     1
102
RTVSPropertyOp6
 70
     1
102
RTVSPropertyOp7
 70
     1
102
RTVSPropertyOp8
 70
     1
102
RTVSPropertyOp9
 70
     1
102
RTVSPropertyOp10
 70
     1
102
RTVSPropertyOp11
 70
     1
102
RTVSPropertyOp12
 70
     1
102
RTVSPropertyOp13
 70
     1
102
RTVSPropertyOp14
 70
     1
102
RTVSPropertyOp15
 70
     1
102
RTVSPropertyOp16
 70
     1
102
RTVSPropertyOp17
 70
     1
102
RTVSPropertyOp18
 70
     1
102
RTVSPropertyOp19
 70
     1
102
RTVSPropertyOp20
 70
     1
102
RTVSPropertyOp21
 70
     1
102
RTVSPropertyOp22
 70
     1
102
RTVSPropertyOp23
 70
     1
102
RTVSPropertyOp24
 70
     1
102
RTVSPropertyOp25
 70
     1
102
RTVSPropertyOp26
 70
     1
102
RTVSPropertyOp27
 70
     1
  0
XRECORD
  5
1931
102
{ACAD_REACTORS
330
1930
102
}
330
1930
100
AcDbXrecord
280
     1
102
RTVSPropertyOp0
 70
     1
102
RTVSPropertyOp1
 70
     1
102
RTVSPropertyOp2
 70
     1
102
RTVSPropertyOp3
 70
     1
102
RTVSPropertyOp4
 70
     1
102
RTVSPropertyOp5
 70
     1
102
RTVSPropertyOp6
 70
     1
102
RTVSPropertyOp7
 70
     1
102
RTVSPropertyOp8
 70
     1
102
RTVSPropertyOp9
 70
     1
102
RTVSPropertyOp10
 70
     1
102
RTVSPropertyOp11
 70
     1
102
RTVSPropertyOp12
 70
     1
102
RTVSPropertyOp13
 70
     1
102
RTVSPropertyOp14
 70
     1
102
RTVSPropertyOp15
 70
     1
102
RTVSPropertyOp16
 70
     1
102
RTVSPropertyOp17
 70
     1
102
RTVSPropertyOp18
 70
     1
102
RTVSPropertyOp19
 70
     1
102
RTVSPropertyOp20
 70
     1
102
RTVSPropertyOp21
 70
     1
102
RTVSPropertyOp22
 70
     1
102
RTVSPropertyOp23
 70
     1
102
RTVSPropertyOp24
 70
     1
102
RTVSPropertyOp25
 70
     1
102
RTVSPropertyOp26
 70
     1
102
RTVSPropertyOp27
 70
     1
  0
XRECORD
  5
1935
102
{ACAD_REACTORS
330
1934
102
}
330
1934
100
AcDbXrecord
280
     1
102
RTVSPropertyOp0
 70
     1
102
RTVSPropertyOp1
 70
     1
102
RTVSPropertyOp2
 70
     1
102
RTVSPropertyOp3
 70
     1
102
RTVSPropertyOp4
 70
     1
102
RTVSPropertyOp5
 70
     1
102
RTVSPropertyOp6
 70
     1
102
RTVSPropertyOp7
 70
     1
102
RTVSPropertyOp8
 70
     1
102
RTVSPropertyOp9
 70
     1
102
RTVSPropertyOp10
 70
     1
102
RTVSPropertyOp11
 70
     1
102
RTVSPropertyOp12
 70
     1
102
RTVSPropertyOp13
 70
     1
102
RTVSPropertyOp14
 70
     1
102
RTVSPropertyOp15
 70
     1
102
RTVSPropertyOp16
 70
     1
102
RTVSPropertyOp17
 70
     1
102
RTVSPropertyOp18
 70
     1
102
RTVSPropertyOp19
 70
     1
102
RTVSPropertyOp20
 70
     1
102
RTVSPropertyOp21
 70
     1
102
RTVSPropertyOp22
 70
     1
102
RTVSPropertyOp23
 70
     1
102
RTVSPropertyOp24
 70
     1
102
RTVSPropertyOp25
 70
     1
102
RTVSPropertyOp26
 70
     1
102
RTVSPropertyOp27
 70
     1
  0
XRECORD
  5
1945
102
{ACAD_REACTORS
330
1944
102
}
330
1944
100
AcDbXrecord
280
     1
102
RTVSPropertyOp0
 70
     0
102
RTVSPropertyOp1
 70
     0
102
RTVSPropertyOp2
 70
     0
102
RTVSPropertyOp3
 70
     0
102
RTVSPropertyOp4
 70
     0
102
RTVSPropertyOp5
 70
     0
102
RTVSPropertyOp6
 70
     0
102
RTVSPropertyOp7
 70
     0
102
RTVSPropertyOp8
 70
     0
102
RTVSPropertyOp9
 70
     0
102
RTVSPropertyOp10
 70
     0
102
RTVSPropertyOp11
 70
     0
102
RTVSPropertyOp12
 70
     0
102
RTVSPropertyOp13
 70
     0
102
RTVSPropertyOp14
 70
     2
102
RTVSPropertyOp15
 70
     0
102
RTVSPropertyOp16
 70
     0
102
RTVSPropertyOp17
 70
     0
102
RTVSPropertyOp18
 70
     0
102
RTVSPropertyOp19
 70
     0
102
RTVSPropertyOp20
 70
     0
102
RTVSPropertyOp21
 70
     0
102
RTVSPropertyOp22
 70
     0
102
RTVSPropertyOp23
 70
     0
102
RTVSPropertyOp24
 70
     0
102
RTVSPropertyOp25
 70
     0
102
RTVSPropertyOp26
 70
     0
102
RTVSPropertyOp27
 70
     0
  0
XRECORD
  5
193D
102
{ACAD_REACTORS
330
193C
102
}
330
193C
100
AcDbXrecord
280
     1
102
RTVSPropertyOp0
 70
     1
102
RTVSPropertyOp1
 70
     1
102
RTVSPropertyOp2
 70
     1
102
RTVSPropertyOp3
 70
     1
102
RTVSPropertyOp4
 70
     1
102
RTVSPropertyOp5
 70
     1
102
RTVSPropertyOp6
 70
     1
102
RTVSPropertyOp7
 70
     1
102
RTVSPropertyOp8
 70
     1
102
RTVSPropertyOp9
 70
     1
102
RTVSPropertyOp10
 70
     1
102
RTVSPropertyOp11
 70
     1
102
RTVSPropertyOp12
 70
     1
102
RTVSPropertyOp13
 70
     1
102
RTVSPropertyOp14
 70
     1
102
RTVSPropertyOp15
 70
     1
102
RTVSPropertyOp16
 70
     1
102
RTVSPropertyOp17
 70
     1
102
RTVSPropertyOp18
 70
     1
102
RTVSPropertyOp19
 70
     1
102
RTVSPropertyOp20
 70
     1
102
RTVSPropertyOp21
 70
     1
102
RTVSPropertyOp22
 70
     1
102
RTVSPropertyOp23
 70
     1
102
RTVSPropertyOp24
 70
     1
102
RTVSPropertyOp25
 70
     1
102
RTVSPropertyOp26
 70
     1
102
RTVSPropertyOp27
 70
     1
  0
XRECORD
  5
1921
102
{ACAD_REACTORS
330
1920
102
}
330
1920
100
AcDbXrecord
280
     1
102
RTVSPropertyOp0
 70
     1
102
RTVSPropertyOp1
 70
     1
102
RTVSPropertyOp2
 70
     1
102
RTVSPropertyOp3
 70
     1
102
RTVSPropertyOp4
 70
     1
102
RTVSPropertyOp5
 70
     1
102
RTVSPropertyOp6
 70
     1
102
RTVSPropertyOp7
 70
     1
102
RTVSPropertyOp8
 70
     1
102
RTVSPropertyOp9
 70
     1
102
RTVSPropertyOp10
 70
     1
102
RTVSPropertyOp11
 70
     1
102
RTVSPropertyOp12
 70
     1
102
RTVSPropertyOp13
 70
     1
102
RTVSPropertyOp14
 70
     1
102
RTVSPropertyOp15
 70
     1
102
RTVSPropertyOp16
 70
     1
102
RTVSPropertyOp17
 70
     1
102
RTVSPropertyOp18
 70
     1
102
RTVSPropertyOp19
 70
     1
102
RTVSPropertyOp20
 70
     1
102
RTVSPropertyOp21
 70
     1
102
RTVSPropertyOp22
 70
     1
102
RTVSPropertyOp23
 70
     1
102
RTVSPropertyOp24
 70
     1
102
RTVSPropertyOp25
 70
     1
102
RTVSPropertyOp26
 70
     1
102
RTVSPropertyOp27
 70
     1
  0
XRECORD
  5
1923
102
{ACAD_REACTORS
330
1922
102
}
330
1922
100
AcDbXrecord
280
     1
102
RTVSPropertyOp0
 70
     1
102
RTVSPropertyOp1
 70
     1
102
RTVSPropertyOp2
 70
     1
102
RTVSPropertyOp3
 70
     1
102
RTVSPropertyOp4
 70
     1
102
RTVSPropertyOp5
 70
     1
102
RTVSPropertyOp6
 70
     1
102
RTVSPropertyOp7
 70
     1
102
RTVSPropertyOp8
 70
     1
102
RTVSPropertyOp9
 70
     1
102
RTVSPropertyOp10
 70
     1
102
RTVSPropertyOp11
 70
     1
102
RTVSPropertyOp12
 70
     1
102
RTVSPropertyOp13
 70
     1
102
RTVSPropertyOp14
 70
     1
102
RTVSPropertyOp15
 70
     1
102
RTVSPropertyOp16
 70
     1
102
RTVSPropertyOp17
 70
     1
102
RTVSPropertyOp18
 70
     1
102
RTVSPropertyOp19
 70
     1
102
RTVSPropertyOp20
 70
     1
102
RTVSPropertyOp21
 70
     1
102
RTVSPropertyOp22
 70
     1
102
RTVSPropertyOp23
 70
     1
102
RTVSPropertyOp24
 70
     1
102
RTVSPropertyOp25
 70
     1
102
RTVSPropertyOp26
 70
     1
102
RTVSPropertyOp27
 70
     1
  0
XRECORD
  5
1925
102
{ACAD_REACTORS
330
1924
102
}
330
1924
100
AcDbXrecord
280
     1
102
RTVSPropertyOp0
 70
     1
102
RTVSPropertyOp1
 70
     1
102
RTVSPropertyOp2
 70
     1
102
RTVSPropertyOp3
 70
     1
102
RTVSPropertyOp4
 70
     1
102
RTVSPropertyOp5
 70
     1
102
RTVSPropertyOp6
 70
     1
102
RTVSPropertyOp7
 70
     1
102
RTVSPropertyOp8
 70
     1
102
RTVSPropertyOp9
 70
     1
102
RTVSPropertyOp10
 70
     1
102
RTVSPropertyOp11
 70
     1
102
RTVSPropertyOp12
 70
     1
102
RTVSPropertyOp13
 70
     1
102
RTVSPropertyOp14
 70
     1
102
RTVSPropertyOp15
 70
     1
102
RTVSPropertyOp16
 70
     1
102
RTVSPropertyOp17
 70
     1
102
RTVSPropertyOp18
 70
     1
102
RTVSPropertyOp19
 70
     1
102
RTVSPropertyOp20
 70
     1
102
RTVSPropertyOp21
 70
     1
102
RTVSPropertyOp22
 70
     1
102
RTVSPropertyOp23
 70
     1
102
RTVSPropertyOp24
 70
     1
102
RTVSPropertyOp25
 70
     1
102
RTVSPropertyOp26
 70
     1
102
RTVSPropertyOp27
 70
     1
  0
XRECORD
  5
1927
102
{ACAD_REACTORS
330
1926
102
}
330
1926
100
AcDbXrecord
280
     1
102
RTVSPropertyOp0
 70
     1
102
RTVSPropertyOp1
 70
     1
102
RTVSPropertyOp2
 70
     1
102
RTVSPropertyOp3
 70
     1
102
RTVSPropertyOp4
 70
     1
102
RTVSPropertyOp5
 70
     1
102
RTVSPropertyOp6
 70
     1
102
RTVSPropertyOp7
 70
     1
102
RTVSPropertyOp8
 70
     1
102
RTVSPropertyOp9
 70
     1
102
RTVSPropertyOp10
 70
     1
102
RTVSPropertyOp11
 70
     1
102
RTVSPropertyOp12
 70
     1
102
RTVSPropertyOp13
 70
     1
102
RTVSPropertyOp14
 70
     1
102
RTVSPropertyOp15
 70
     1
102
RTVSPropertyOp16
 70
     1
102
RTVSPropertyOp17
 70
     1
102
RTVSPropertyOp18
 70
     1
102
RTVSPropertyOp19
 70
     1
102
RTVSPropertyOp20
 70
     1
102
RTVSPropertyOp21
 70
     1
102
RTVSPropertyOp22
 70
     1
102
RTVSPropertyOp23
 70
     1
102
RTVSPropertyOp24
 70
     1
102
RTVSPropertyOp25
 70
     1
102
RTVSPropertyOp26
 70
     1
102
RTVSPropertyOp27
 70
     1
  0
XRECORD
  5
1941
102
{ACAD_REACTORS
330
1940
102
}
330
1940
100
AcDbXrecord
280
     1
102
RTVSPropertyOp0
 70
     0
102
RTVSPropertyOp1
 70
     0
102
RTVSPropertyOp2
 70
     0
102
RTVSPropertyOp3
 70
     0
102
RTVSPropertyOp4
 70
     0
102
RTVSPropertyOp5
 70
     0
102
RTVSPropertyOp6
 70
     0
102
RTVSPropertyOp7
 70
     0
102
RTVSPropertyOp8
 70
     0
102
RTVSPropertyOp9
 70
     0
102
RTVSPropertyOp10
 70
     0
102
RTVSPropertyOp11
 70
     0
102
RTVSPropertyOp12
 70
     0
102
RTVSPropertyOp13
 70
     0
102
RTVSPropertyOp14
 70
     2
102
RTVSPropertyOp15
 70
     0
102
RTVSPropertyOp16
 70
     0
102
RTVSPropertyOp17
 70
     0
102
RTVSPropertyOp18
 70
     0
102
RTVSPropertyOp19
 70
     0
102
RTVSPropertyOp20
 70
     0
102
RTVSPropertyOp21
 70
     0
102
RTVSPropertyOp22
 70
     0
102
RTVSPropertyOp23
 70
     0
102
RTVSPropertyOp24
 70
     0
102
RTVSPropertyOp25
 70
     0
102
RTVSPropertyOp26
 70
     0
102
RTVSPropertyOp27
 70
     0
  0
XRECORD
  5
193B
102
{ACAD_REACTORS
330
193A
102
}
330
193A
100
AcDbXrecord
280
     1
102
RTVSPropertyOp0
 70
     1
102
RTVSPropertyOp1
 70
     1
102
RTVSPropertyOp2
 70
     1
102
RTVSPropertyOp3
 70
     1
102
RTVSPropertyOp4
 70
     1
102
RTVSPropertyOp5
 70
     1
102
RTVSPropertyOp6
 70
     1
102
RTVSPropertyOp7
 70
     1
102
RTVSPropertyOp8
 70
     1
102
RTVSPropertyOp9
 70
     1
102
RTVSPropertyOp10
 70
     1
102
RTVSPropertyOp11
 70
     1
102
RTVSPropertyOp12
 70
     1
102
RTVSPropertyOp13
 70
     1
102
RTVSPropertyOp14
 70
     1
102
RTVSPropertyOp15
 70
     1
102
RTVSPropertyOp16
 70
     1
102
RTVSPropertyOp17
 70
     1
102
RTVSPropertyOp18
 70
     1
102
RTVSPropertyOp19
 70
     1
102
RTVSPropertyOp20
 70
     1
102
RTVSPropertyOp21
 70
     1
102
RTVSPropertyOp22
 70
     1
102
RTVSPropertyOp23
 70
     1
102
RTVSPropertyOp24
 70
     1
102
RTVSPropertyOp25
 70
     1
102
RTVSPropertyOp26
 70
     1
102
RTVSPropertyOp27
 70
     1
  0
XRECORD
  5
1943
102
{ACAD_REACTORS
330
1942
102
}
330
1942
100
AcDbXrecord
280
     1
102
RTVSPropertyOp0
 70
     0
102
RTVSPropertyOp1
 70
     0
102
RTVSPropertyOp2
 70
     0
102
RTVSPropertyOp3
 70
     0
102
RTVSPropertyOp4
 70
     0
102
RTVSPropertyOp5
 70
     0
102
RTVSPropertyOp6
 70
     0
102
RTVSPropertyOp7
 70
     0
102
RTVSPropertyOp8
 70
     0
102
RTVSPropertyOp9
 70
     0
102
RTVSPropertyOp10
 70
     0
102
RTVSPropertyOp11
 70
     0
102
RTVSPropertyOp12
 70
     0
102
RTVSPropertyOp13
 70
     0
102
RTVSPropertyOp14
 70
     2
102
RTVSPropertyOp15
 70
     0
102
RTVSPropertyOp16
 70
     0
102
RTVSPropertyOp17
 70
     0
102
RTVSPropertyOp18
 70
     0
102
RTVSPropertyOp19
 70
     0
102
RTVSPropertyOp20
 70
     0
102
RTVSPropertyOp21
 70
     0
102
RTVSPropertyOp22
 70
     0
102
RTVSPropertyOp23
 70
     0
102
RTVSPropertyOp24
 70
     0
102
RTVSPropertyOp25
 70
     0
102
RTVSPropertyOp26
 70
     0
102
RTVSPropertyOp27
 70
     0
  0
XRECORD
  5
1933
102
{ACAD_REACTORS
330
1932
102
}
330
1932
100
AcDbXrecord
280
     1
102
RTVSPropertyOp0
 70
     1
102
RTVSPropertyOp1
 70
     1
102
RTVSPropertyOp2
 70
     1
102
RTVSPropertyOp3
 70
     1
102
RTVSPropertyOp4
 70
     1
102
RTVSPropertyOp5
 70
     1
102
RTVSPropertyOp6
 70
     1
102
RTVSPropertyOp7
 70
     1
102
RTVSPropertyOp8
 70
     1
102
RTVSPropertyOp9
 70
     1
102
RTVSPropertyOp10
 70
     1
102
RTVSPropertyOp11
 70
     1
102
RTVSPropertyOp12
 70
     1
102
RTVSPropertyOp13
 70
     1
102
RTVSPropertyOp14
 70
     1
102
RTVSPropertyOp15
 70
     1
102
RTVSPropertyOp16
 70
     1
102
RTVSPropertyOp17
 70
     1
102
RTVSPropertyOp18
 70
     1
102
RTVSPropertyOp19
 70
     1
102
RTVSPropertyOp20
 70
     1
102
RTVSPropertyOp21
 70
     1
102
RTVSPropertyOp22
 70
     1
102
RTVSPropertyOp23
 70
     1
102
RTVSPropertyOp24
 70
     1
102
RTVSPropertyOp25
 70
     1
102
RTVSPropertyOp26
 70
     1
102
RTVSPropertyOp27
 70
     1
  0
XRECORD
  5
1939
102
{ACAD_REACTORS
330
1938
102
}
330
1938
100
AcDbXrecord
280
     1
102
RTVSPropertyOp0
 70
     1
102
RTVSPropertyOp1
 70
     1
102
RTVSPropertyOp2
 70
     1
102
RTVSPropertyOp3
 70
     1
102
RTVSPropertyOp4
 70
     1
102
RTVSPropertyOp5
 70
     1
102
RTVSPropertyOp6
 70
     1
102
RTVSPropertyOp7
 70
     1
102
RTVSPropertyOp8
 70
     1
102
RTVSPropertyOp9
 70
     1
102
RTVSPropertyOp10
 70
     1
102
RTVSPropertyOp11
 70
     1
102
RTVSPropertyOp12
 70
     1
102
RTVSPropertyOp13
 70
     1
102
RTVSPropertyOp14
 70
     1
102
RTVSPropertyOp15
 70
     1
102
RTVSPropertyOp16
 70
     1
102
RTVSPropertyOp17
 70
     1
102
RTVSPropertyOp18
 70
     1
102
RTVSPropertyOp19
 70
     1
102
RTVSPropertyOp20
 70
     1
102
RTVSPropertyOp21
 70
     1
102
RTVSPropertyOp22
 70
     1
102
RTVSPropertyOp23
 70
     1
102
RTVSPropertyOp24
 70
     1
102
RTVSPropertyOp25
 70
     1
102
RTVSPropertyOp26
 70
     1
102
RTVSPropertyOp27
 70
     1
  0
ENDSEC
  0
EOF
